<?xml version="1.0" standalone="no"?>
<!DOCTYPE svg PUBLIC "-//W3C//DTD SVG 1.1//EN" "http://www.w3.org/Graphics/SVG/1.1/DTD/svg11.dtd">
<svg xmlns="http://www.w3.org/2000/svg">
<metadata>Copyright (C) 2018 by original authors @ fontello.com</metadata>
<defs>
<font id="ltx-holamed" horiz-adv-x="1000" >
<font-face font-family="ltx-holamed" font-weight="400" font-stretch="normal" units-per-em="1000" ascent="850" descent="-150" />
<missing-glyph horiz-adv-x="1000" />
<glyph glyph-name="quote" unicode="&#xe800;" d="M274 475c15 52 68 126 91 149 14 14 15 36 2 50l-4 4c-11 12-29 15-43 8-281-148-298-382-295-416 0-3-1-7-1-11 0-121 98-219 219-219 121 0 219 98 219 219 0 110-82 201-188 216z m521 0c15 52 68 126 91 149 14 14 15 36 2 50l-4 4c-11 12-29 15-43 8-281-148-298-382-295-416 0-3-1-7-1-11 0-121 98-219 219-219s218 98 218 219c1 110-81 201-187 216z" horiz-adv-x="1000" />

<glyph glyph-name="responsive" unicode="&#xe801;" d="M932 759h-773c-38 0-68-29-68-68v-227c0-14 9-23 23-23s22 9 22 23v227c0 14 10 23 23 23h773c14 0 23-9 23-23v-545c0-14-9-23-23-23h-546c-13 0-22-9-22-23s9-23 22-23h46v-68c0-14-9-23-23-23h-23c-13 0-22-9-22-22s9-23 22-23h319c13 0 22 9 22 23s-9 22-22 22h-23c-14 0-23 9-23 23v68h273c39 0 68 30 68 69v545c0 39-29 68-68 68z m-459-773c2 7 4 14 4 23v68h137v-68c0-9 2-16 4-23h-145z m413 273h-500c-13 0-22-9-22-23s9-22 22-22h500c14 0 23 9 23 22s-9 23-23 23z m-636 137h-182c-38 0-68-30-68-69v-318c0-39 30-68 68-68h182c39 0 68 29 68 68v318c0 39-29 69-68 69z m23-387c0-14-9-23-23-23h-182c-13 0-22 9-22 23v318c0 14 9 23 22 23h182c14 0 23-9 23-23v-318z" horiz-adv-x="1000" />

<glyph glyph-name="return" unicode="&#xe802;" d="M752 497c-2 0-681 0-681 0l143 161c9 10 8 26-2 35-11 10-27 9-36-2l-161-181c-20-22-20-55 0-77l161-181c5-5 12-8 19-8 6 0 12 2 17 6 10 10 11 26 2 36l-143 161c0 0 679 0 681 0 109 0 198-89 198-198s-89-198-198-198h-121c-14 0-25-11-25-25 0-14 11-26 25-26h121c137 0 248 112 248 249 0 137-111 248-248 248z" horiz-adv-x="1000" />

<glyph glyph-name="right-arrow" unicode="&#xe803;" d="M984 389l-361 361c-10 10-24 16-39 16-14 0-28-6-38-16l-33-33c-11-10-16-24-16-38 0-15 5-29 16-40l210-211h-669c-30 0-54-23-54-54v-46c0-30 24-56 54-56h672l-213-212c-11-11-16-24-16-39 0-14 5-28 16-38l33-33c10-10 24-16 38-16 15 0 29 6 39 16l361 361c10 11 16 24 16 39 0 15-6 29-16 39z" horiz-adv-x="1000" />

<glyph glyph-name="search" unicode="&#xe804;" d="M668 736c-153 152-401 152-554 0-152-153-152-401 0-554 136-136 348-150 500-44 4-15 11-30 23-42l222-222c32-32 85-32 117 0 32 32 32 85 0 117l-222 222c-12 12-27 19-42 23 106 152 92 364-44 500z m-70-484c-114-114-300-114-413 0-114 114-114 300 0 413 113 114 299 114 413 0 114-113 114-299 0-413z" horiz-adv-x="1000" />

<glyph glyph-name="settings" unicode="&#xe805;" d="M642 130c-10 6-21 13-32 19 3 21 3 43 0 65 11 6 22 12 32 19 18 10 25 33 17 52 0 0 0 0 0 0l-23 55c-7 19-28 30-48 25-12-3-24-6-36-9-14 17-29 32-46 46 3 12 6 24 9 36 5 20-6 41-25 48l-55 23c-19 8-42 1-52-17-7-10-13-21-19-32-22 3-44 3-65 0-6 11-13 22-19 32-11 18-33 25-52 17l-56-23c-19-7-29-28-24-48 3-12 6-24 9-36-17-14-32-29-46-46-12 3-24 6-36 9-20 5-41-6-49-25l-23-55c-8-19 0-42 17-52 11-7 22-13 32-19-2-22-2-44 0-65-10-6-21-13-32-19-17-11-25-33-17-52l23-56c8-19 29-29 49-24 12 3 24 6 36 9 14-17 29-33 46-46-3-12-6-24-9-36-5-20 5-41 24-49l56-23c5-2 10-3 16-3 14 0 28 7 36 20 6 11 12 21 19 32 21-2 43-2 65 0 6-11 12-21 19-32 10-17 33-25 52-17l55 23c19 8 30 29 25 49-3 12-6 24-9 36 17 13 32 29 46 46 12-3 24-6 36-9 20-5 41 5 48 24l23 56c8 19 1 41-17 52z m-46-88c-11 3-23 6-35 9-16 4-33-2-44-15-11-15-25-29-41-41-13-10-19-28-14-44 3-12 6-23 9-34l-51-22c-6 11-12 21-18 31-9 15-25 23-42 21-19-2-38-2-58 0-16 2-33-6-41-21-6-10-12-21-18-31l-51 22c3 11 6 23 9 34 4 16-2 34-15 44-15 12-29 26-41 41-10 13-27 19-44 15-11-3-23-6-34-9l-22 51c11 6 21 12 31 18 15 8 23 25 21 41-2 20-2 39 0 58 2 17-6 33-21 42-10 6-20 12-31 18l22 51c11-3 23-6 34-9 17-5 34 1 44 14 12 16 26 30 41 41 13 11 19 28 15 44-3 12-6 24-9 35l51 21c6-10 12-20 18-31 8-14 25-23 41-20 20 2 39 2 58 0 17-3 33 6 42 20 6 11 12 21 18 31l51-21c-3-11-6-23-9-35-5-16 1-33 14-44 16-11 30-25 41-41 11-13 28-19 44-14 12 3 24 6 35 9l21-51c-10-6-20-12-31-18-14-9-23-25-20-42 2-19 2-38 0-58-3-16 6-33 20-41 11-6 21-12 31-18l-21-51z m-124 198c0 0 0 0 0 0-32 77-121 114-199 82-78-32-115-121-83-199 16-38 45-67 83-83 19-7 39-11 58-11s40 4 59 11c77 33 114 122 82 200z m-99-158c-27-11-56-11-83 0-27 11-47 31-58 58-23 55 3 118 58 141 14 5 27 8 41 8 42 0 83-25 100-66 23-55-4-119-58-141z m597 571c-8 1-16 2-24 3-4 14-9 27-16 39 5 6 10 13 15 19 10 14 8 34-4 46l-31 31c-12 12-32 14-46 4-6-5-13-10-19-15-12 7-25 12-39 16-1 8-2 16-3 24-3 17-18 30-35 30h-44c-17 0-32-13-35-30-1-8-2-16-3-24-14-4-27-9-39-16-6 5-13 10-19 15-14 10-34 8-46-4l-31-31c-12-12-14-32-4-46 5-6 10-13 15-19-7-12-12-25-16-39-8-1-16-2-24-3-17-3-30-18-30-35v-44c0-17 13-32 30-35 8-1 16-2 24-3 4-14 9-27 16-39-5-6-10-13-15-19-10-14-8-34 4-46l31-31c12-12 32-14 46-4 6 5 13 10 19 15 12-7 25-12 39-16 1-8 2-16 3-24 3-17 18-30 35-30h44c17 0 32 13 35 30 1 8 2 16 3 24 14 4 27 9 39 16 6-5 13-10 19-15 14-10 34-8 46 4l31 31c12 12 14 32 4 46-5 6-10 13-15 19 7 12 12 25 16 39 8 1 16 2 24 3 17 3 30 18 30 35v44c0 17-13 32-30 35z m-12-73c-7-1-15-2-22-3-14-2-26-12-29-25-4-14-9-26-16-38-7-13-6-28 3-39 4-6 8-12 13-17l-23-23c-5 5-11 9-17 13-11 9-26 10-39 3-12-7-24-12-38-16-13-3-23-15-25-29-1-7-2-15-3-22h-32c-1 7-2 15-3 22-2 14-12 26-25 29-14 4-26 9-38 16-13 7-28 6-39-3-6-4-12-8-17-13l-23 23c5 5 9 11 13 17 9 11 10 26 3 39-7 12-12 24-16 38-3 13-15 23-29 25-7 1-15 2-22 3v32c7 1 15 2 22 3 14 2 26 12 29 25 4 14 9 26 16 38 7 13 6 28-3 39-4 6-8 12-13 17l23 23c5-5 11-9 17-13 11-9 26-10 39-3 12 7 24 12 38 16 13 3 23 15 25 29 1 7 2 15 3 22h32c1-7 2-15 3-22 2-14 12-26 25-29 14-4 26-9 38-16 13-7 28-6 39 3 6 4 12 8 17 13l23-23c-5-5-9-11-13-17-9-11-10-26-3-39 7-12 12-24 16-38 3-13 15-23 29-25 7-1 15-2 22-3v-32z m-212 107c-50 0-91-41-91-91 0-50 41-91 91-91s91 41 91 91c0 50-41 91-91 91z m0-141c-28 0-50 22-50 50 0 28 22 50 50 50 28 0 50-22 50-50 0-28-22-50-50-50z" horiz-adv-x="1000" />

<glyph glyph-name="shoping" unicode="&#xe806;" d="M949 462c-21 27-50 41-81 41h-70c-7 181-138 326-298 326-160 0-291-145-298-326h-70c-31 0-60-14-81-41-26-32-36-78-26-122l85-373c13-56 56-96 106-96h568c49 0 93 40 106 96l85 373c10 44 0 90-26 122z m-449 287c116 0 212-109 218-246h-436c6 137 102 246 218 246z m397-391l-85-373c-4-19-16-34-28-34h-568c-12 0-24 15-28 34l-85 373c-4 19-7 65 29 65h736c39 0 33-46 29-65z m-595-14c-22 0-40-18-40-40v-249c0-22 18-40 40-40 22 0 40 18 40 40v249c0 22-18 40-40 40z m193 0c-22 0-39-18-39-40v-249c0-22 17-40 39-40 22 0 40 18 40 40v249c0 22-18 40-40 40z m193 0c-22 0-40-18-40-40v-249c0-22 18-40 40-40 22 0 40 18 40 40v249c0 22-18 40-40 40z" horiz-adv-x="1000" />

<glyph glyph-name="shopping-bag" unicode="&#xe807;" d="M900-17l-58 649c-1 13-12 22-25 22h-121c0 108-88 196-196 196s-196-88-196-196h-121c-13 0-24-9-25-22l-57-649c0-1 0-1 0-2 0-72 66-131 148-131h503c81 0 148 59 148 131 0 1 0 1 0 2z m-400 817c81 0 146-65 146-146h-292c0 81 66 146 146 146z m252-900h-503c-54 0-98 36-99 80l56 625h98v-87c0-14 11-25 25-25s25 11 25 25v87h292v-87c0-14 11-25 25-25s25 11 25 25v87h98l56-625c-1-44-45-80-98-80z" horiz-adv-x="1000" />

<glyph glyph-name="stethoscope" unicode="&#xe808;" d="M596 293c-10-3-15-14-11-24 3-9 14-14 23-11 55 20 102 58 133 108 6 9 7 20 4 30-2 9-9 18-18 22 37 78 56 165 56 251 0 29-15 56-44 80l2 3c5 9 5 19 2 28-3 10-10 17-18 22l-25 12c-12 23-36 37-63 36h0c-34-1-63-29-65-63-1-18 5-36 18-49 13-14 31-22 50-22 2 0 5 1 8 1l27-13c5-3 11-4 16-4 12 0 24 5 31 15 13-12 24-28 24-46 0-80-18-161-52-234l0 1c-17 8-38 3-48-13-28-44-75-70-127-70-53 0-100 26-128 70-10 16-31 21-48 13l0-1c-34 73-52 154-52 234 0 18 11 34 24 46 8-10 19-15 31-15 5 0 11 1 16 4l27 13c3 0 6-1 8-1 19 0 37 8 50 22 13 13 19 31 18 49-2 34-30 62-65 63h0c-27 1-51-13-63-36l-24-12c-9-5-16-12-19-22-3-9-3-19 2-28l2-3c-29-24-44-51-44-80 0-86 19-173 56-251-9-4-16-13-18-22-3-10-2-21 4-30 38-61 99-104 169-118 13-86 88-152 177-152 37 0 67-30 67-67 0-18-7-35-20-48-13-13-31-20-49-20 0 0 0 0 0 0-57 0-112 18-158 50-8 6-20 4-26-4-5-9-3-20 5-26 52-37 114-57 178-57 1 0 1 0 1 0 28 0 55 11 75 31 20 20 31 46 31 74 0 57-47 104-104 104-74 0-136 58-142 132 0 9-7 16-15 17-66 10-123 48-158 104 0 0 0 0 0 0l33 17c35-55 93-87 159-87s123 32 158 87l17-9c0 0 0 0 0 0 0 0 0 0 0 0l16-8c0 0 0 0 0 0-27-43-67-76-114-93z m103 459c0 0 0-1 0-1l-7-14c0 0 0 0-1 0l-32 16c-3 1-6 2-8 2-2 0-3-1-4-1-3 0-5-1-7-1-9 0-17 4-23 10-6 6-9 14-8 22 1 15 14 28 30 28 13 0 25-7 30-20 1-4 5-8 9-10l30-14-9-17z m-340 31c4 2 8 6 9 10 5 13 17 21 30 20 16 0 29-13 30-28 1-8-2-16-8-22-6-6-14-10-23-10-2 0-4 1-7 1-4 1-8 1-12-1l-32-16c0 0-1 0-1 0 0 0 0 0 0 0l-16 32 30 14z m409-629c-33 34-78 53-126 53-34 0-63 26-67 59-2 10-11 18-21 16-10-1-17-10-16-20 7-52 51-92 104-92 38 0 73-15 100-42 27-27 42-63 41-101 0-37-15-72-42-98-27-27-64-42-102-42-1 0-1 0-2 0-88 1-172 35-236 95 0 0 0 0 0 0l-4 4c-6 5-15 6-22 2-16-10-35-15-54-15-57 0-104 47-104 105 0 58 47 105 104 105 58 0 105-47 105-105 0-13-2-26-7-37-3-10 1-21 11-24 10-4 20 1 24 10 6 16 9 33 9 51 0 78-63 141-142 141s-141-63-141-141 63-142 141-142c21 0 42 5 61 14 70-63 160-99 255-100 0 0 1 0 2 0 47 0 94 19 128 52 34 34 53 78 53 125 1 48-18 93-52 127z m-447-8c-37 0-67-31-67-68 0-37 30-68 67-68 15 0 29 5 41 14 8 6 10 17 4 25-6 9-18 10-26 4-6-4-12-6-19-6-16 0-30 14-30 31 0 17 14 31 30 31 17 0 31-14 31-31 0-10 9-19 19-19s18 9 18 19c0 37-30 68-68 68z" horiz-adv-x="1000" />

<glyph glyph-name="surgical" unicode="&#xe809;" d="M501 33c-10 0-17 8-17 17v375l-60 45c-4 3-7 8-7 13v284c0 46 38 83 84 83 9 0 16-7 16-17v-275l60-44c4-4 7-8 7-14v-83c0-9-7-17-17-17s-16 8-16 17v75l-60 45c-4 3-7 8-7 13v264c-19-7-33-25-33-47v-275l60-45c4-3 6-8 6-13v-384c0-9-7-17-16-17z m-184-116c-73 0-133 59-133 133s60 133 133 133 134-59 134-133-60-133-134-133z m0 233c-55 0-100-45-100-100 0-55 45-100 100-100 55 0 100 45 100 100 0 55-45 100-100 100z m367-233c-74 0-134 59-134 133s60 133 134 133 133-59 133-133-60-133-133-133z m0 233c-55 0-100-45-100-100 0-55 45-100 100-100 55 0 100 45 100 100 0 55-45 100-100 100z m-117 333c-3 0-7 2-10 4l-66 50c-4 3-7 8-7 13v283c0 10 7 17 17 17 46 0 83-37 83-83v-267c0-6-3-12-9-15-3-1-5-2-8-2z m-50 75l34-25v234c0 21-14 40-34 47v-256z m167-708c-82 0-153 49-184 120-30-71-101-120-183-120-57 0-111 24-149 67-38 42-56 99-50 156 10 90 83 164 172 175 45 6 89-2 127-25l0 544c0 46 37 83 83 83 9 0 17-7 17-16v-275l60-45c4-3 6-8 6-14v-277c38 23 82 31 127 26 90-12 162-85 172-176 7-57-12-113-50-156-37-43-91-67-148-67z m-183 217c9 0 16-8 16-17 0-92 75-167 167-167 47 0 93 21 124 56 32 36 47 82 41 131-8 74-68 136-143 145-37 5-74-2-106-21-10-6-23-6-33 0-10 6-17 17-17 29v269l-60 45c-4 3-6 8-6 13v264c-20-7-34-25-34-47v-544c0-12-6-23-17-29-10-6-22-6-32 0-32 19-69 26-106 21-75-9-135-71-144-145-5-49 9-95 41-131 32-35 77-56 125-56 92 0 166 75 166 167 1 9 8 17 18 17z" horiz-adv-x="1000" />

<glyph glyph-name="telephone" unicode="&#xe80a;" d="M760 189c-32 32-73 32-106 0-24-25-49-50-73-75-7-6-13-8-21-3-16 8-33 16-48 25-72 45-132 103-186 169-26 32-49 67-66 106-3 8-3 13 4 20 25 23 49 48 73 73 34 34 34 74 0 108-19 20-39 39-58 58-20 20-40 40-60 60-33 32-74 32-106 0-25-25-49-50-74-74-24-22-36-49-38-81-4-52 9-101 26-149 37-98 93-186 160-266 92-109 201-195 328-257 58-28 117-49 182-53 45-2 83 9 114 44 22 23 45 45 68 68 33 34 33 74 0 108-39 39-79 79-119 119z m-39 165l76 13c-12 71-45 135-96 186-53 53-121 87-195 97l-11-77c58-8 110-34 151-75 40-40 65-89 75-144z m120 334c-89 89-201 145-325 162l-11-77c107-15 204-64 281-140 72-73 120-164 137-265l77 13c-20 117-75 223-159 307z" horiz-adv-x="1000" />

<glyph glyph-name="user" unicode="&#xe80b;" d="M998-7c-5 21-26 35-47 30-21-4-34-25-30-46 3-12 0-24-8-34-5-6-15-15-31-15h-763c-17 0-27 9-32 15-7 10-10 22-8 34 41 195 212 337 411 342 3 0 7 0 10 0 4 0 7 0 10 0 140-3 269-74 347-191 13-18 37-22 55-10 18 12 22 36 10 54-64 95-157 165-263 200 65 48 107 126 107 212 0 147-119 266-266 266s-266-119-266-266c0-86 42-164 107-212-59-20-115-50-164-90-89-74-151-176-174-289-8-35 1-71 24-99 22-28 56-44 92-44h763c35 0 69 16 91 44 23 28 32 64 25 99z m-685 591c0 104 84 188 187 188s188-84 188-188c0-100-79-182-178-187-4 0-7 0-10 0-3 0-6 0-9 0-99 5-178 87-178 187z" horiz-adv-x="1000" />

<glyph glyph-name="uterus" unicode="&#xe80c;" d="M693 721c-122 50-263 50-385-2l-1 0c-30-12-48-41-45-71 1-10 10-17 20-17 0 0 1 0 2 0 11 1 18 11 17 21-1 13 7 25 21 31l1 0c113 48 242 48 356 2 14-6 22-19 21-32-2-11 6-21 16-22 11-1 21 6 22 17 5 31-13 60-45 73z m286-77c-35 50-103 63-154 29l-30-20c-57-37-125-52-192-40l-28 5c-49 9-101 9-150 0l-28-5c-67-12-135 3-192 40l-30 20c-51 34-119 21-154-29-34-47-26-114 19-151l45-38 1 0c0-1 0-1 1-2 3-23 15-46 33-64 18-18 40-30 63-33 24-4 47 2 62 18 15 15 22 38 18 62-3 23-15 45-33 63-17 17-38 28-58 32-5 1-9 4-13 7-1 1-1 2-2 2l-45 38c-1 0-1 1-1 2 1 1 2 1 3 0l30-20c48-32 103-52 160-59 26-39 32-84 17-125-7-19-10-39-9-59 2-33 14-65 36-92 45-59 69-128 69-202v-62c0-11 9-19 19-19h128c10 0 19 8 19 19v62c0 71 25 142 71 203 23 30 34 64 34 98 0 17-2 34-8 50-14 42-8 88 16 127 57 7 112 27 160 59l30 20c1 1 2 1 2 0 1 0 1 0 1-1 0 0 0-1-1-1l-45-38c-1 0-2-1-3-2-11-11-23-20-35-26-11-6-20-12-29-21-19-17-31-39-35-61-5-25 1-48 16-63 15-16 37-23 62-20 22 3 45 14 64 31 24 23 37 53 36 81l41 34c45 37 53 104 19 151z m-336-282c4-12 6-25 6-38 0-26-9-52-26-74-52-68-79-147-79-227v-42h-88v42c0 82-27 160-78 226-16 21-25 45-27 70 0 15 2 30 7 44 16 44 13 92-7 135 14 0 28 1 42 2l0-11c1-43 18-83 49-112l39-35v-50c0-11 8-20 19-20 11 0 20 9 20 20v50l38 35c31 29 49 69 49 112l0 11c14-1 29-2 43-2 0 0 0 0 0 0-20-44-22-92-7-136z m292 160l-45-37c-8-6-11-15-10-25 2-17-8-38-24-53-13-12-28-20-42-21-7-1-20-1-29 7-14 16-6 47 18 70 6 6 12 10 19 14 16 8 31 19 45 33 1 0 1 0 1 0l45 38c9 7 14 18 15 30 0 11-4 22-13 30-13 13-35 15-51 5l-29-20c-55-37-119-56-185-56-16 0-31 1-47 3-9 1-18-1-24-7-7-6-11-15-11-24l0-20c0-32-14-62-37-83l-31-29-31 29c-23 21-36 51-37 83l0 20c0 9-4 18-11 24-5 5-13 7-20 7-1 0-3 0-4 0-81-11-163 8-232 53l-30 20c-18 12-43 8-55-10-13-18-9-42 7-55l45-38c0 0 0 0 0 0 9-9 20-15 32-17 13-3 27-10 38-22 12-12 20-27 23-41 1-7 1-20-7-29-9-8-22-8-29-7-14 3-29 11-41 23-13 12-21 27-23 42-1 10-6 19-15 26l-45 38c-29 24-35 68-12 99 23 33 67 41 101 19l30-20c65-44 143-60 219-46l29 5c45 8 92 8 136 0l29-5c76-14 154 2 219 46l31 20c33 22 77 14 101-19 0 0 0 0 0 0 22-31 16-75-13-100z m-421-275c-3 4-8 6-14 6-5 0-10-2-13-6-4-3-6-8-6-14 0-5 2-10 6-13 3-4 8-6 13-6 6 0 11 2 14 6 4 3 6 8 6 13 0 6-2 11-6 14z m27-62c-7 8-20 8-27 0-8-7-19-7-27 0-7 8-20 8-27 0-8-8-8-20 0-28 11-11 26-17 41-17 14 0 29 6 40 17 8 8 8 20 0 28z" horiz-adv-x="1000" />

<glyph glyph-name="cardiogram" unicode="&#xe80d;" d="M979 316h-418l-13 77c0 3-3 6-6 6 0 0 0 0 0 0-4 0-7-3-7-6l-13-89-15 117c0 4-3 6-6 7 0 0 0 0 0 0-4 0-7-3-7-6l-20-107h-10l-12 44c-1 3-4 5-7 5-4 0-6-3-7-6l-9-43h-408c-3 0-7-3-7-7 0-4 3-7 7-7h414c3 0 6 3 6 6l5 21 6-22c1-3 4-5 7-5h20c4 0 7 3 7 6l13 73 15-135c0-3 3-6 7-6 0 0 0 0 0 0 3 0 6 3 7 6l14 101 7-39c0-3 3-5 7-5h423c3 0 7 3 7 7 0 3-3 7-7 7z" horiz-adv-x="1000" />

<glyph glyph-name="chat" unicode="&#xe80e;" d="M727 751h-671c-31 0-56-25-56-56v-403c0-31 25-56 56-56h44v-150c0-10 6-18 14-22 3-1 6-2 9-2 7 0 13 3 17 7l167 167h33c13 0 24 10 24 23 0 13-11 24-24 24 0 0-44 0-45 0-5 0-11-3-15-7l-133-133c0 0 0 118 0 119-1 12-11 21-24 21h-67c-5 0-9 4-9 9v403c0 5 4 9 9 9h671c5 0 9-4 9-9v-155c0-13 11-23 24-23s23 10 23 23v155c0 31-25 56-56 56z m217-289h-470c-31 0-56-25-56-56v-274c0-32 25-57 56-57h294l119-119c5-5 11-7 17-7 3 0 6 1 9 2 9 4 15 12 15 22v102h16c31 0 56 25 56 57v274c0 31-25 56-56 56z m9-330c0-6-4-10-9-10h-40c-12 0-23-9-24-21 0-1 0-71 0-71l-85 85c0 0 0 1-1 1 0 0 0 0-1 1-4 3-9 5-15 5h-304c-5 0-9 4-9 10v274c0 5 4 9 9 9h470c5 0 9-4 9-9v-274z m-244 160c-13 0-24-10-24-23 0-13 11-24 24-24 13 0 24 11 24 24 0 13-11 23-24 23z m-103 303c0 0-429 0-429 0-13 0-23-11-23-24s10-23 23-23h429c13 0 24 10 24 23s-11 24-24 24z m-266-156h-163c-13 0-23-11-23-24 0-13 10-23 23-23h163c13 0 24 10 24 23s-11 24-24 24z m259-147c-13 0-23-10-23-23 0-13 10-24 23-24 13 0 24 11 24 24 0 13-11 23-24 23z m220 0c-13 0-24-10-24-23 0-13 11-24 24-24 13 0 23 11 23 24 0 13-10 23-23 23z" horiz-adv-x="1000" />

<glyph glyph-name="clock" unicode="&#xe80f;" d="M500 850c-276 0-500-224-500-500s224-500 500-500 500 224 500 500-224 500-500 500z m0-893c-217 0-393 177-393 393s177 393 393 393 393-177 393-393-176-393-393-393z m260 408h-224v271c0 23-18 41-41 41s-41-18-41-41v-312c0-22 18-41 41-41h265c23 0 41 19 41 41s-18 41-41 41z" horiz-adv-x="1000" />

<glyph glyph-name="favorites" unicode="&#xe810;" d="M922 456c18 18 25 44 17 68-8 24-28 41-53 45l-219 31c-4 1-8 4-10 8l-98 198c-11 23-34 37-59 37-25 0-48-14-59-37l-98-198c-2-4-6-7-10-8l-219-31c-25-4-45-21-53-45-8-24-1-50 17-68l158-154c3-3 5-8 4-12l-37-218c-5-25 5-49 26-64 20-15 47-17 69-5l196 103c4 2 8 2 12 0l196-103c10-6 20-8 31-8 13 0 27 4 38 13 21 15 31 39 27 64l-38 218c-1 4 1 9 4 12l158 154z m-214-175l38-218c1-7-4-11-6-13-2-1-7-4-14-1l-195 103c-10 5-20 8-31 8-10 0-21-3-31-8l-195-103c-7-3-12 0-14 1-2 2-7 6-5 13l37 218c4 22-4 43-19 59l-158 154c-6 5-4 11-4 13 1 3 4 8 11 9l219 32c21 3 40 17 49 36l98 198c4 7 10 8 12 8 3 0 9-1 12-8v0l98-198c9-19 28-33 49-36l219-32c8-1 10-6 11-9 1-2 2-8-3-13l-159-154c-15-16-22-37-19-59z m100 525c-12 8-28 6-37-6l-28-39c-8-11-6-28 6-36 5-4 10-5 16-5 8 0 16 3 21 10l28 39c9 12 6 28-6 37z m-551-44l-28 38c-9 12-25 15-37 6-12-9-15-25-6-37l28-38c5-7 13-11 21-11 6 0 11 1 16 5 12 8 14 25 6 37z m-160-511c-5 14-20 21-33 17l-46-15c-14-5-21-19-17-33 4-11 14-18 25-18 3 0 6 0 9 1l45 15c14 4 21 19 17 33z m403-293c-15 0-26-12-26-27v-47c0-15 11-27 26-27 15 0 26 12 26 27v47c0 15-11 27-26 27z m482 295l-45 15c-14 4-29-3-34-17-4-14 3-29 17-34l46-14c2-1 5-2 8-2 11 0 21 8 25 19 4 14-3 28-17 33z" horiz-adv-x="1000" />

<glyph glyph-name="gastric-reflux" unicode="&#xe811;" d="M321-150c-15 0-28 1-44 3-66 8-126 32-172 70-75 60-135 168-89 260 48 95 182 114 272 72 4-2 8-4 13-6 19-10 38-19 58-20 37-3 74 9 103 35 33 28 54 71 57 115 2 37-16 72-48 91-79 46-178 131-121 335 1 2 2 4 3 6 2 1 34 39 92 39 9 0 88-1 88-50 0-6-1-14-1-24-2-35-8-124 18-141 1 0 2 1 3 2 3 2 6 3 8 4 126 45 275 0 363-109 89-110 100-283 26-421-11-19-23-38-36-55-74-93-185-131-322-111-102 15-207 58-295 121-13 9-26 17-38 23-25 13-58 24-74 3-7-10-6-16-5-20 10-28 82-62 184-87 26-7 36-22 40-33 13-37-24-85-31-94-7-7-16-8-37-8h-3c-4 0-8 0-12 0z m-133 393c-58 0-116-24-142-75-38-76 15-167 79-219 42-34 96-56 156-63 18-2 32-3 51-2 1 0 2 0 4 0 7 0 11 0 14 0 13 17 27 44 23 57-1 2-3 8-17 12-85 20-189 56-207 108-4 12-6 30 10 51 13 18 46 42 115 7 14-7 28-16 42-26 84-60 184-101 281-115 87-13 208-6 291 99 12 15 23 32 32 50 68 127 59 285-22 384-79 99-213 139-326 98 0 0-1 0-2-1-9-5-17-10-26-7-55 18-49 117-46 177 1 9 1 17 1 22 0 9-29 17-54 17-35 0-57-19-64-25-48-177 32-250 107-293 43-25 67-72 64-123-3-52-28-103-68-137-36-32-81-47-128-44-26 2-48 13-70 24-4 2-8 4-13 6-25 12-55 18-85 18z m0 0m133-393c-15 0-28 1-44 3-66 8-126 32-172 70-75 60-135 168-89 260 48 95 182 114 272 72 4-2 8-4 13-6 19-10 38-19 58-20 35-3 69 8 98 31 1 1 3 2 5 3l13 4c61 20 118 39 223 9 94-26 177-20 277 20 5 2 12 2 16-2 5-3 7-9 7-14-4-60-21-118-48-169-11-19-23-38-36-55-74-93-185-131-322-111-102 15-207 58-295 121-13 9-26 17-38 23-25 13-58 24-74 3-7-10-6-16-5-20 10-28 82-62 184-87 26-7 36-22 40-33 13-37-24-85-31-94-7-7-16-8-37-8h-3c-4 0-8 0-12 0z m-133 393c-58 0-116-24-142-75-38-76 15-167 79-219 42-34 96-56 156-63 18-2 32-3 51-2 1 0 2 0 4 0 7-1 11 0 14 0 13 17 27 44 23 57-1 2-3 8-17 12-85 20-189 56-207 108-4 12-6 30 10 51 13 18 46 42 115 7 14-7 28-16 42-26 84-60 184-101 281-115 87-13 208-6 291 99 12 15 23 32 32 50 21 39 36 83 42 129-97-35-180-38-273-12-95 28-145 11-203-9l-11-3c-35-27-76-40-119-37-26 2-48 13-70 24-4 2-8 4-13 6-25 12-55 18-85 18z m0 0m278-193c-37 0-67 30-67 67 0 9 8 17 17 17 9 0 17-8 17-17 0-18 15-33 33-33s33 15 33 33c0 18-15 33-33 33-9 0-17 8-17 17 0 9 8 17 17 17 37 0 67-30 67-67 0-37-30-67-67-67z m0 0m167 50c-37 0-67 30-67 67 0 37 30 67 67 67 9 0 16-8 16-17 0-9-7-17-16-17-19 0-34-15-34-33 0-18 15-33 34-33s33 15 33 33c0 9 7 17 17 17 9 0 16-8 16-17 0-37-30-67-66-67z m0 0m166-66c-36 0-66 29-66 66 0 37 30 67 66 67 37 0 67-30 67-67 0-9-8-16-17-16-9 0-16 7-16 16 0 19-15 34-34 34s-33-15-33-34 15-33 33-33c10 0 17-8 17-17 0-9-7-16-17-16z m0 0" horiz-adv-x="1000" />

<glyph glyph-name="heart" unicode="&#xe812;" d="M554-150c-47 0-94 9-132 38-55 40-85 97-82 156 3 51 27 102 75 157 0 2 0 6 0 8 1 5 1 9 1 11 4 23 13 44 26 62 48 69 155 89 224 42 50-34 89-95 116-181 16-50 35-124 17-186-16-61-78-81-129-93-36-7-76-14-116-14z m24 467c-42 0-85-20-109-54-10-14-17-31-20-49 0-1 0-3 0-5 0-14-1-21-6-28l0 0c-45-49-68-95-70-139-2-48 22-94 68-127 61-45 151-33 222-18 45 10 92 25 104 69 15 54-2 121-17 167-25 78-60 133-103 163-20 14-44 21-69 21z m-160-113c0 0 0 0 0 0z m0 0m-33-335c-122 0-245 62-297 156-43 78-29 162 39 236 57 62 117 94 176 94 1 0 1 0 2 0 69 0 124-42 158-78l9-9-7-11c-8-13-13-28-16-43 0-1 0-3 0-5 0-14-1-21-6-28-45-49-68-95-70-139-2-48 22-94 68-127 5-4 9-7 14-9l40-23-45-8c-21-4-43-6-65-6z m-80 453c-1 0-1 0-2 0-50-1-101-29-151-83-75-81-60-152-35-198 49-87 171-144 286-138-43 38-66 89-63 141 3 51 27 102 75 157 0 2 0 6 0 8 1 5 1 9 1 11 3 15 8 29 14 43-29 28-73 59-125 59z m0 0m149-84l-15 16c-41 43-106 88-186 58l-28-10 6 29c46 242 270 363 338 395 16 7 34 1 42-15l36-72c4-8 5-17 2-25-3-9-9-15-17-19-169-81-143-206-111-273l6-14-14-7c-18-10-33-23-44-38-1-2-2-3-2-4z m-150 117c50 0 100-22 145-64 10 12 22 23 35 31-28 70-55 212 134 303l-37 71c-60-29-257-136-311-345 11 3 23 4 34 4z m0 0m448-214l-27 56c-22 45-48 79-78 99-36 26-90 27-134 4l-15-8-8 16c-23 51-52 150 20 238l6 6 8 0c49-3 118-19 169-78 52-60 73-151 64-271z m-173 209c31 0 62-9 87-26 22-15 42-36 60-61-1 82-21 146-58 189-41 47-96 62-137 66-48-65-34-136-17-180 21 8 43 12 65 12z m0 0m-362-55l-4 22c-17 105-32 296 55 389 12 12 16 29 11 44l-16 59c-3 10-1 20 5 28 6 8 16 13 26 13h51c14 0 26-9 31-22l16-48c5-17 19-28 35-31 32-4 75-19 98-66l7-14-13-8c-81-50-221-159-255-337l-2-9-9-3c-5-2-11-4-16-7z m127 522l-50 0 18-58c7-27 0-55-19-76-69-72-64-222-53-315 44 159 167 261 248 313-18 24-45 33-65 35-29 4-53 25-63 53z m0 0m-252-699l-20 32c-41 66-39 154 3 225 10 16 13 30 9 40-6 13-23 25-48 32-9 2-17 8-21 17-4 8-4 17-1 26l23 57c5 12 16 20 28 21 69 4 128-56 165-107l3-4 1-5c1-51 7-99 12-129l2-12-11-6c-29-14-57-36-85-66-25-27-42-56-50-84z m-24 417l-23-57c25-6 58-21 70-51 8-20 4-44-11-69-23-39-39-99-19-157 10 21 24 41 42 60 28 30 56 53 84 68-4 30-9 72-11 117-27 36-77 91-132 89z m0 0m167-137l-32 44c-14 19-29 37-44 51l-3 3-2 4c-36 105-78 161-119 158-11-1-22 4-29 13-6 9-8 21-4 31l16 41c4 8 10 14 18 17 8 4 16 4 24 1l37-15c15-6 31-7 45-2 32 11 95 21 153-33l5-5 1-14-5-5c-44-44-65-125-62-235z m-51 116c6-5 11-10 16-16 4 88 24 155 60 199-39 29-79 25-107 16-22-8-46-7-68 2l-37 15-14-39c58 3 109-56 150-177z m0 0m356-364c-6 0-11 3-14 7-6 10-28 35-51 37-11 1-22-3-33-14-7-6-18-6-24 1-6 7-6 17 1 24 18 17 38 25 60 22 43-5 73-49 75-51 5-8 3-18-5-23-3-2-6-3-9-3z m0 0" horiz-adv-x="1000" />

<glyph glyph-name="human-body" unicode="&#xe813;" d="M500-150c-276 0-500 224-500 500s224 500 500 500 500-224 500-500-224-500-500-500z m0 967c-257 0-467-210-467-467s210-467 467-467 467 210 467 467-210 467-467 467z m0 0m-69-384c-23 0-51 10-77 44-6 7-5 17 2 23 7 6 18 5 24-2 24-31 50-39 79-24 8 5 18 2 22-6 5-8 2-18-6-23-11-6-27-12-44-12z m0 0m133 0c-12 0-25 3-38 10-9 5-12 15-7 23 4 8 14 11 22 7 41-22 78 23 79 25 6 7 17 8 24 2 7-6 8-16 2-23-14-18-45-44-82-44z m0 0m-64-433c0 0-1 0-1 0-4 0-39 4-60 21-7 5-8 16-2 23 6 7 17 8 24 2 9-8 31-12 40-13 10 0 16-8 16-18-1-8-8-15-17-15z m0 0m0 717c-1 0-2 0-4 0-64 15-93 70-104 102-2 4-2 9 1 14 2 4 6 7 11 8 64 12 129 12 192 0 5-1 9-4 11-8 3-5 3-10 1-14-11-32-40-87-104-102-1 0-3 0-4 0z m-69 95c13-26 34-52 69-61 35 9 56 35 69 61-46 6-92 6-138 0z m0 0m118-960c-7 0-13 5-16 12l-33 100-33-100c-3-8-10-12-18-12-65 7-128 26-186 58-5 2-8 7-9 12-3 26 4 179 36 261l10 201c0 57-4 89-30 123-19 25-32 27-33 27-1-1-2-1-4-1h-173c-6 0-11 3-14 8-3 5-3 11-1 16 19 41 43 79 71 113 2 3 5 5 8 6l71 23c3 1 81 27 135 33 19 2 34 6 48 12 21 9 35 20 40 30 2 3 5 6 8 7l5 4c7 3 16 2 21-4 13-15 30-25 48-30 19 5 35 15 48 30 6 6 14 7 21 4l6-4c3-1 5-4 7-7 5-10 19-21 40-30 14-6 30-10 48-12 54-6 132-32 135-33l71-23c3-1 6-3 8-6 29-34 53-72 71-113 3-5 2-11-1-16-3-5-8-8-14-8h-173c-1 0-3 0-4 1-1 0-14-2-33-27-26-34-30-66-30-124l10-200c33-82 39-235 36-261-1-5-4-10-9-12-58-32-121-51-186-58-1 0-1 0-2 0z m-49 181c7 0 14-4 16-11l45-135c53 7 104 23 152 48 2 39-7 170-35 239-1 2-1 4-1 6l-10 203c0 63 5 102 36 144 31 40 56 41 65 40h145c-14 28-32 54-52 78l-66 23c-1 0-78 25-128 31-23 2-41 7-58 15-22 9-38 20-48 32-17-14-36-24-57-29-3 0-5 0-8 0-21 5-40 15-56 29-11-12-27-23-49-32-16-8-35-13-57-15-51-6-128-31-129-31l-66-23c-20-24-38-50-52-78h145c9 1 34 0 65-40 31-42 36-81 36-144l-10-203c0-2 0-4-1-6-28-69-37-200-35-239 48-25 99-41 152-48l45 135c3 7 9 11 16 11z m262 501h0z m-524 0h0z m524 0c0 0 0 0 0 0 0 0 0 0 0 0z m-524 0c0 0 0 0 0 0 0 0 0 0 0 0z m0 0m262-534c-9 0-16 7-17 15 0 9 6 18 16 18 11 1 31 6 40 13 7 6 18 5 24-2 6-7 5-18-2-23-20-17-56-21-60-21 0 0 0 0-1 0z m0 0m-67 650c-4 0-8 2-11 5l-17 17c-7 6-7 17 0 23 6 7 17 7 24 0l16-16c7-7 7-18 0-24-3-3-7-5-12-5z m0 0m134 0c-5 0-9 2-12 5-7 6-7 17 0 24l17 16c6 7 17 7 23 0 7-6 7-17 0-23l-16-17c-4-3-8-5-12-5z m0 0m-67-483c-9 0-17 7-17 16 0 9 6 15 14 17 1 1 3 5 3 17 0 9 8 16 17 16 9 0 16-7 16-16 0-50-32-50-33-50z m0 0" horiz-adv-x="1000" />

<glyph glyph-name="laboratory" unicode="&#xe814;" d="M266 733c-11 0-20-9-20-20s9-19 20-19 19 9 19 19-9 20-19 20z m0-78c-11 0-20-9-20-20s9-19 20-19 19 8 19 19-9 20-19 20z m0-532c-11 0-20-8-20-19s9-20 20-20 19 9 19 20-9 19-19 19z m664-156h-20v442h20c10 0 19 8 19 19s-9 20-19 20h-20v19c0 11-9 20-19 20s-20-9-20-20v-19h-39v109c0 11-9 20-19 20h-157c-10 0-19-9-19-20v-109h-39v109c0 11-9 20-20 20h-156c-11 0-20-9-20-20v-109h-39v109c0 11-8 20-19 20h-156c-11 0-20-9-20-20v-109h-39v19c0 11-9 20-20 20s-19-9-19-20v-19h-20c-10 0-19-9-19-20s9-19 19-19h20v-442h-20c-10 0-19-9-19-19v-79c0-10 9-19 19-19h860c10 0 19 9 19 19v79c0 10-9 19-19 19z m-254 571h117v-90h-117v90z m0-129h117v-90h-117v90z m0-129h117v-176c0-32-26-59-59-59s-58 27-58 59v176z m-235 258h118v-90h-118v90z m0-129h118v-168h-118v168z m0-207h118v-98c0-32-27-59-59-59s-59 27-59 59v98z m-234 336h117v-90h-117v90z m0-129h117v-90h-117v90z m0-129h117v-176c0-32-26-59-58-59s-59 27-59 59v176z m-78 129h39v-305c0-54 44-98 98-98s97 44 97 98v305h39v-305c0-54 44-98 98-98s98 44 98 98v305h39v-305c0-54 44-98 97-98s98 44 98 98v305h39v-442h-742v442z m781-520h-820v39h820v-39z m-644 352c-11 0-20-9-20-20v-39c0-11 9-19 20-19s19 8 19 19v39c0 11-9 20-19 20z m586 609h-469c-6 0-2 0-124-40-8-3-13-10-13-19s6-15 13-18c124-41 118-40 124-40 25 0 450 0 469 0 32 0 58 26 58 58 0 33-26 59-58 59z m-466-78l-59 19 59 20h156l49-39h-205z m466 0h-199l-48 39h247c10 0 19-9 19-20 0-10-9-19-19-19z" horiz-adv-x="1000" />

<glyph glyph-name="layers" unicode="&#xe815;" d="M1000 350c0 21-12 40-31 50l-74 37 74 37c0 0 0 0 0 0 19 10 31 29 31 50 0 21-12 40-31 49l-420 210c-31 16-67 16-98 0l-420-210c-19-9-31-28-31-49 0-21 12-40 31-50l74-37-74-37c-19-10-31-29-31-50s12-40 31-50l74-37-74-37c-19-9-31-28-31-50 0-21 12-40 31-49l420-210c15-8 32-12 49-12 17 0 34 4 49 12l420 210c19 9 31 28 31 49 0 22-12 41-31 50l-74 37 74 37c19 10 31 29 31 50z m-949 165c-4 3-5 7-5 9s1 6 5 8l421 210c9 5 18 7 28 7 10 0 20-2 29-7l420-210c4-2 5-6 5-8s-1-6-5-9l-420-210c-18-9-40-9-57 0l-421 210z m898-330c4-2 5-6 5-9 0-2-1-6-5-8l-420-210c-18-9-40-9-57 0l-421 210c-4 2-5 6-5 8 0 3 1 7 5 9l106 53 294-148c15-7 32-11 49-11 17 0 34 4 49 11l295 148 105-53z m0 157l-420-211c-18-9-40-9-57 0l-421 211c-4 2-5 6-5 8 0 2 1 6 5 9l106 52 294-147c15-8 32-12 49-12 17 0 34 4 49 12l295 147 105-52c4-3 5-7 5-9 0-2-1-6-5-8z" horiz-adv-x="1000" />

<glyph glyph-name="left-arrow" unicode="&#xe816;" d="M957 393h-809l193 193c17 17 17 45 0 62-17 16-44 16-61 0l-267-267c-17-17-17-45 0-62l267-266c8-9 19-13 30-13 11 0 22 4 31 13 17 16 17 44 0 61l-193 193h809c24 0 43 19 43 43 0 24-19 43-43 43z" horiz-adv-x="1000" />

<glyph glyph-name="liver" unicode="&#xe817;" d="M84-150c-1 0-1 0-2 0-25 0-45 32-49 76-2 24-6 48-11 74-5 23-10 46-12 70-11 105-16 230 22 355 2 7 4 14 7 21 15 45 33 79 55 108 56 74 153 106 297 99 51-3 132-14 180-25 45-10 92-13 138-10 69 4 148 24 191 48 26 14 56 10 78-10 21-19 27-49 15-75-15-34-47-76-96-125-14-13-32-31-49-50-44-51-208-223-420-331-42-22-85-37-127-44-44-8-103-33-136-105-1-2-2-5-3-8-6-21-20-68-78-68z m-20 565c-37-119-31-240-21-342 2-22 7-45 11-67 5-25 11-51 13-78 2-28 13-43 17-45 30 0 38 19 46 44 1 5 2 9 4 13 42 89 119 115 160 123 39 7 79 21 119 41 207 106 367 275 410 324 18 19 36 38 50 52 46 45 76 84 90 115 7 15 0 29-8 36-9 8-24 14-39 5-56-30-143-48-205-52-50-3-99 1-147 12-48 10-125 21-174 23-135 7-220-20-270-85-20-26-35-57-50-99-2-7-4-13-6-20z m52-398c-1 0-3 0-4 0-7 2-11 7-13 13 0 1 0 4-1 7-8 34-31 138-15 216 2 9 10 15 19 13 9-1 15-10 13-19-8-43-5-104 10-180 59 55 126 73 154 78 34 6 69 23 96 36 8 5 18 1 22-7 4-8 1-18-7-22-29-15-67-33-105-40-28-5-100-24-156-90-4-3-8-5-13-5z m0 350c-2 0-4 0-6 1-8 3-13 12-10 21 12 36 43 93 60 115 33 43 91 63 189 63 9 0 17-8 17-17s-8-17-17-17c-86 0-136-15-163-50-15-19-43-72-55-105-2-7-8-11-15-11z m416 300c-9 0-16 7-16 16 0 46-37 84-84 84-9 0-16 7-16 16s7 17 16 17c65 0 117-52 117-117 0-9-7-16-17-16z m67 0c-9 0-17 7-17 16s8 17 17 17c46 0 83 37 83 83 0 9 8 17 17 17s17-8 17-17c0-64-52-116-117-116z m0-484c-4 0-8 2-11 5-7 6-7 16-1 23 122 138 36 257 32 262-5 8-4 18 4 24 7 5 17 4 23-4 1-1 106-146-34-304-4-4-8-6-13-6z m0 406c-1 0-2 0-2 1-11 1-23 3-33 6-10 2-22 4-34 6-8 2-14 9-14 17v181c0 28 22 50 50 50s50-22 50-50v-194c0-5-2-9-6-13-3-2-7-4-11-4z m-28 39c4-1 8-1 11-2v174c0 9-7 17-16 17s-17-8-17-17v-167c8-2 15-3 22-5z m-89-778c-27 0-50 22-50 50v205c0 6 4 12 9 15 22 11 44 25 66 38 5 4 12 4 17 1 5-3 8-9 8-15v-244c0-28-22-50-50-50z m-16 245v-195c0-9 7-16 16-16s17 7 17 16v215c-11-7-22-14-33-20z m-235 512c-5 0-10 2-13 7-16 23-42 36-69 36h-16c-28 0-50 23-50 50 0 28 22 50 50 50h16c72 0 138-42 167-108 2-5 2-10-1-15-2-5-7-8-12-8-25-2-47-6-67-12-2 0-3 0-5 0z m-99 110c-9 0-16-8-16-17 0-9 7-17 16-17h17c34 0 67-15 89-41 11 3 24 5 36 7-27 42-74 68-125 68h-17z m650-650h-33c-78 0-148 49-173 123-3 7 0 15 6 19 19 14 38 29 57 44 5 4 11 5 17 3 6-3 10-8 10-14 4-43 40-76 83-76h34c27 0 50-22 50-50s-23-49-51-49z m-170 123c23-54 77-90 137-90h33c10 0 17 7 17 17s-7 16-17 16h-33c-51 0-94 32-110 78-9-7-18-14-27-21z" horiz-adv-x="1000" />

<glyph glyph-name="mamary-gland" unicode="&#xe818;" d="M500-150c-276 0-500 224-500 500s224 500 500 500 500-224 500-500-224-500-500-500z m0 967c-257 0-467-210-467-467s210-467 467-467 467 210 467 467-210 467-467 467z m0 0m127-817c-43 0-81 26-109 74-41 72-55 203 13 319 19 33 42 71 69 106 18 23 37 43 55 61l15 15c6 5 12 11 18 17 13 13 30 30 48 45l5 3c11 10 26 23 43 26 1 0 3 1 6 1 17 0 32-9 40-25 19-34 1-94-53-178-33-49-54-111-61-177-6-52-5-90 4-121 0-3 1-5 2-8 10-27 7-62 1-86-7-26-22-47-43-59-15-9-32-13-53-13z m163 633c-8-1-19-11-28-18l-4-4c-18-14-34-30-46-42-6-6-12-12-18-18l-15-15c-18-17-36-36-52-57-26-34-49-71-67-102-62-105-50-222-13-287 21-36 50-57 80-57 15 0 27 3 37 9 12 7 22 21 27 39 5 18 7 46 0 65-1 4-3 7-4 11-9 36-10 78-4 133 8 72 31 138 66 192 66 102 57 136 52 145-3 5-8 6-11 6z m0 0m-323-716c-9 0-17 7-17 16s8 17 17 17c46 0 94 16 94 16 9 3 19-2 22-11 2-9-2-18-11-21-2-1-53-17-105-17z m0 0m-50 83c-28 0-50 21-50 47-28 0-50 22-50 48 0 6 1 12 3 17-21 6-37 24-37 46 0 9 3 16 6 23-13 9-22 24-22 40 0 12 4 23 12 32-8 8-12 19-12 31 0 17 9 32 22 41-3 6-6 14-6 22 0 21 14 39 34 46 0 0 0 1 0 1 0 17 9 32 22 41-4 7-6 14-6 22 0 21 14 39 34 46 0 0 0 1 0 2 0 21 14 38 33 45 0 1 0 1 0 2 0 26 22 48 50 48 8 0 16-2 23-5 1 1 3 1 4 2 10 4 19 4 29 0 11-5 21-16 26-30 1-4 2-8 2-12 10-9 16-21 16-35 0-21-14-38-33-45 0-1 0-1 0-2 0-21-14-39-34-45 0-1 0-1 0-2 0-14-6-28-17-37 0-3 1-7 1-10 0-17-9-32-23-41 4-6 6-14 6-22 0-17-9-32-23-40 4-7 6-15 6-23 0-9-2-17-6-24 4-7 6-15 6-23 0-8-2-16-6-23 14-9 23-24 23-40 0-4 0-7-1-11 11-9 18-22 18-37 0-1 0-3-1-5 3-3 5-6 8-8 4-3 10-8 12-17 1-7 2-22-21-29-5-21-25-36-48-36z m-34 85c4 0 8-2 11-4l1-2c1 0 2-1 3-2 7-5 9-14 4-22-1-2-2-4-2-7 0-8 8-15 17-15 9 0 16 7 16 15 0 0 0 1 0 1 0 7 4 14 11 16-3 3-6 6-9 9-3 5-5 11-3 17 1 2 1 3 1 4 0 6-4 12-11 14-5 2-9 6-10 11-2 5-1 10 2 15 2 2 3 5 3 8 0 7-7 13-15 14-7 1-13 6-15 13l-1 6c-2 6 1 14 7 18 4 2 7 7 7 12 0 5-3 9-5 10-4 4-6 8-6 13 0 5 2 10 6 13 2 2 5 5 5 11 0 6-4 11-11 14-7 2-12 9-11 17l0 3c1 4 3 8 7 11 3 3 8 4 12 3 10-1 20 6 20 15 0 7-6 13-13 14-5 1-9 4-11 8-2 4-3 9-2 13l1 3c3 8 12 13 20 11 2-1 3-1 5-1 9 0 16 7 16 15 0 3 0 5-2 8-3 4-4 9-3 15 2 5 6 9 11 10 7 2 11 8 11 14 0 2-1 5-2 7-4 6-4 13 0 18 3 6 10 9 16 8 1 0 2-1 3-1 9 0 16 7 16 15 0 3 0 5-2 7-3 6-3 13 0 18 4 6 10 9 16 8 2 0 2 0 3 0 9 0 17 6 17 14 0 5-3 10-8 13-5 3-8 8-7 14 0 3-1 6-2 8-2 6-5 10-8 11-1 1-1 1-2 0-2-1-5-3-6-4-7-5-16-5-22 0-3 3-8 5-12 5-9 0-17-7-17-15 0-3 1-5 3-7 3-6 3-13 0-18-4-6-10-9-17-8-1 0-2 0-2 0-9 0-17-6-17-14 0-3 1-5 2-8 4-5 4-12 0-18-3-5-10-8-16-7-10 1-19-6-19-15 0-4 2-9 7-12 7-4 10-14 6-22l-3-5c-3-5-7-8-13-9-8-1-14-7-14-15 0-2 1-4 2-7 4-5 4-12 0-18-3-5-10-8-16-7-1 0-2 0-3 0-9 0-16-7-16-15 0-6 4-11 11-14 8-2 13-10 11-19-2-8-10-17-19-15-10 1-20-6-20-15 0-8 7-14 17-14 9-1 16-8 16-17 0-9-7-17-16-17-10 0-17-7-17-15 0-9 10-16 20-14 8 1 17-5 19-13 1-9-3-19-11-22-7-2-11-7-11-14 0-8 7-14 16-14 2 0 3 0 5 0 7 2 15-2 19-9 1-3 2-6 3-8 4-7 2-16-4-21-2-1-6-5-6-11 0-10 14-18 25-12 3 1 5 2 8 2z m0 0m117-235c-10 0-21 0-34 1-9 1-16 8-16 17v50c-48 8-188 54-260 317-2 1-4 1-4 1-13 4-25 11-34 20-23 24-24 60-2 90 10 13 21 23 35 30 7 4 14 7 22 8 3 1 12 1 17 1 15 44 81 213 286 328 38 22 73 47 104 75 2 2 15 15 31 31 5 5 11 6 17 4 202-69 338-259 338-473 0-276-224-500-500-500z m-17 34c6-1 12-1 17-1 257 0 467 210 467 467 0 196-123 371-306 438-13-13-23-22-25-24-32-30-69-57-110-80-203-114-262-282-271-314-4-12-15-19-27-19-6 1-14 1-16 0-3 0-7-2-11-4-9-5-17-12-24-20-9-14-15-33-1-48 5-5 12-9 19-11 0 0 2 0 5-1 8-1 16-2 19-12 79-300 241-305 248-305 9 0 16-8 16-17z m-253 501c0 0 0 0 0 0z m0 0" horiz-adv-x="1000" />

<glyph glyph-name="med_sign" unicode="&#xe819;" d="M173 592c23 10 109 46 153 71 0 0-89-52-141-74-14-8-29-19-24-26 8-9 57-5 86 4 21 13 72 44 86 55 1 1 2 1 2 1-1 0-2-1-2-1-9-7-47-37-79-58-8-9-15-21-8-27 12-9 51 6 76 19 12 10 32 27 39 37 0 0-14-21-36-40-7-11-18-29-10-35 9-8 38 1 55 13 7 8 18 21 23 31 0 0-6-19-18-34-2-7-2-16 6-20 13-5 28 3 41 16 5 6 10 14 14 22 0 0-5-15-11-26-1-6 0-11 5-14 7-3 34 6 50 35l-2 117c-12 0-24 1-27 4-7 6-12 19-13 35-1 16-2 72-58 77-56 5-88-27-138-52-49-25-153-75-216-89-51-10 31-12 74-9 27 12 189 87 220 100 0 0-144-73-218-111-10-6-19-14-15-17 5-5 50-9 86-4z m800 41c-63 14-167 64-216 89-49 25-82 56-138 51-56-4-56-61-58-76-1-16-6-29-12-35-4-3-17-4-28-5l-3-114c16-31 44-40 51-37 6 3 6 8 6 13-6 12-12 27-12 27 4-8 10-16 14-22 13-14 28-22 41-16 9 4 8 12 7 19-12 16-18 35-18 35 5-10 16-23 22-31 18-12 47-22 56-14 7 7-3 25-11 35-21 20-36 41-36 41 8-10 28-28 40-37 24-13 63-28 75-19 8 6 0 18-8 27-32 21-70 50-78 57-1 1-2 1-2 2 0 0 0-1 2-2 14-11 65-42 85-54 29-9 79-13 86-4 6 7-9 17-23 25-53 22-142 74-142 74 45-24 130-61 153-70 36-5 81-1 87 3 3 4-5 11-15 18-74 38-218 110-218 110 31-12 193-87 220-99 42-3 124-2 73 9z m-474 66c16 0 30 14 30 30 0 16-14 29-30 29-16 0-29-13-29-29 0-17 13-30 29-30z m-7-687c0 0 0 0 0 0 3 5 7 9 10 14l2 69c-3 3-6 6-10 9 0 0 0 0 0 0 0 0 0 0 0 0 0 1-1 1-2 2 0 0-1 1-1 1 0 0 0 0 0 0v0c-4 3-7 7-11 10-4-5-8-9-12-13-27-29-19-44-14-58 4-11 21-25 34-39 1 2 3 3 4 5z m-14 26c-16 21-9 30-6 40 1 4 9 13 19 22l1-81c-2 3-4 5-5 7-3 4-7 8-9 12z m13 311c-1 1-2 1-3 2-1 0-1 0-1 0 0 0 0 0 0 0v0c-4 1-8 3-13 4-6 3-13 5-19 8-4-2-7-4-11-6-19-11-41-30-31-55 8-19 28-30 44-41 5-3 10-6 14-9 6 4 11 8 17 13 5 3 11 7 16 11 1 1 2 2 4 2l1 64c-5 2-11 5-18 7 0 0 0 0 0 0 0 0 0 0 0 0z m-40-51c-21 16 7 35 22 43 3 2 8 4 14 7l1-76c-13 9-26 19-37 26z m57-303c0 1-1 2-2 4-1-2-3-4-5-6l0 0c0-1 0-1 0-1 0 0 0 0 0 0 0 0 0 0 0 0 0 0 0 0 0 0-4-5-6-9-8-13l1-68 3-10 3 10 1 80c4-6 8-12 9-19 2-8-1-18-4-26 1 0 2 1 2 2 1 1 1 1 2 2 5 10 7 20 4 31-1 5-3 9-6 14z m14 701c3 0 5 3 5 6 0 3-1 5-2 6-5-6-13-11-22-12h1c-2 0-3 0-5 0-1 0-3 0-4 0h0c-9 1-16 6-21 12-2-1-3-3-3-6 0-3 2-6 5-6h5l5-301c4-2 8-4 12-6 2-1 4-2 6-3 12-5 25-12 37-18 8 3 16 6 24 9 34 14 56 40 54 60-2 20-17 34-20 36-4 3-2 6-8 13-6 7-21 14-41 14-20-1-25-18-23-19 2-1 2-3 2-3-5 1-3-5 6-12 10-8 28-16 33-15 3 1 7-1 10-4 1-1 1-3 2-4 0-2 0-3 0-5-1-7-8-12-13-15-7-6-15-10-22-15-8-5-20-12-35-18l7 306h5z m29-212c-3 0-6 2-6 3 0 2 3 3 6 3s6-1 6-3c0-1-3-3-6-3z m-27-238c0 0 0 0 0 1-3-2-5-3-8-5-5-3-10-7-14-10 0 0 0 0 0 0-5-3-9-6-13-9l1-74c4-4 7-8 11-12 0 0 0 0 0 0 1-1 2-2 3-3 1 0 1 0 1 0v0c0-1 1-1 2-2 3-3 6-6 8-9 4 3 6 6 9 8 13 11 37 37 39 57 2 21-18 43-39 58z m-19-105l2 88c19-14 30-26 31-41 0-12-15-29-33-47z m46 216c-36 20-83 38-101 51-7 5-15 9-22 15-5 3-11 8-13 15 0 2 0 3 0 4 1 2 2 4 3 5 2 3 6 5 9 4 6-1 23 7 33 14 10 8 11 14 6 13 0 0 0 2 2 3 2 1-3 18-23 19-20 0-35-7-41-14-6-7-4-10-8-13-3-2-17-16-20-36-2-20 20-46 54-60 34-14 77-27 93-36 15-8 42-27 21-43-21-15-53-37-73-52-20-15-40-37-39-58 2-20 26-46 40-57 13-12 48-43 52-53 3-10 10-19-6-40-1-2-2-3-3-4-7-8-13-16-19-24-6-10-12-20-16-31-1-6-3-12-3-18 0-3 0-6 0-10 0-6 2-12 5-18 2-3 4-6 4-6 0 1-4 14-5 20-1 10 1 29 16 48 14 18 39 37 44 52 6 14 13 28-13 57-27 29-71 64-70 85 0 20 20 34 56 57 14 10 29 18 44 28 14 10 28 24 27 43-1 19-19 32-34 40z m-107 133c3 0 6-1 6-3 0-1-2-3-6-3-3 0-5 2-5 3 0 2 2 3 5 3z m-302-122c0 61 16 119 43 170h-8c-27-52-42-110-42-170 0-97 38-189 107-257 51-52 115-86 184-100v7c-162 34-284 178-284 350z m672 170c27-51 43-109 43-170 0-172-122-316-284-350v-7c69 14 133 48 184 99 69 69 106 161 106 258 0 60-14 118-42 170h-7z" horiz-adv-x="1000" />

<glyph glyph-name="meeting-point" unicode="&#xe81a;" d="M501 850c-203 0-369-165-369-368 0-54 11-104 32-151 92-200 269-413 320-474 4-4 9-7 16-7s11 3 15 7c52 61 228 274 320 475 22 47 32 97 32 151 1 202-164 367-366 367z m0-560c-106 0-192 86-192 192 0 105 86 191 192 191s190-86 190-191c0-106-85-192-190-192z" horiz-adv-x="1000" />

<glyph glyph-name="mri-2" unicode="&#xe81b;" d="M118 33c0-27 22-50 49-50h167c9 0 17 8 17 17 0 9-8 17-17 17h-166c-10 0-17 7-17 17v223c37-67 92-121 159-158 8-5 18-2 22 6 5 8 2 19-6 23-85 46-147 123-176 215-46 150 10 313 137 405 128 92 300 92 428 0 127-92 182-255 137-405-29-92-92-169-176-215-8-4-11-15-6-23 4-8 14-11 22-6 67 37 122 91 159 158v-224c0-9-8-16-17-16h-166c-10 0-17-8-17-17 0-9 7-17 17-17h166c28 0 50 23 50 50v303c45 150-2 313-121 416-118 103-285 127-428 62-143-65-234-207-234-364 0-39 6-77 17-114v-303z m166-166c0-9 8-17 17-17h400c9 0 16 8 16 17 0 42-32 78-74 82l-38 51 42 57c5 6 5 14 0 20l-42 56 37 50h59c26 0 47 21 49 47 119 133 110 337-18 461s-333 123-462 0-137-328-18-461c1-26 23-47 49-47h58l38-50-43-56c0-1-1-2-1-2 0-1-1-2-1-2-1-4-1-8 0-12 0-1 1-1 1-2 0-1 1-1 1-2l43-57-39-51c-42-4-74-40-74-82z m397 16h-361c7 20 26 34 47 34h267c21 0 40-14 47-34z m-255 234h150l25-34h-200l25 34z m175-67l-25-33h-150l-25 33h200z m-175-67h150l25-33h-200l25 33z m-92 467c0 92 75 166 167 166s166-74 166-166c0-23-4-46-14-67h-305c-9 21-14 44-14 67z m367-100c9 0 16-8 16-17v-17h-433v17c0 9 8 17 17 17h400z m-200 400c110 0 212-61 264-158 52-97 47-215-14-307v48c0 28-23 50-50 50h-12c30 83 2 175-69 228-71 52-167 52-238 0s-99-145-70-228h-11c-28 0-50-22-50-50v-48c-61 92-67 210-14 307 52 97 153 158 264 158z m-217-517v50h433v-50c0-9-7-17-16-17h-400c-9 0-17 8-17 17z m317-50l-25-33h-150l-25 33h200z" horiz-adv-x="1000" />

<glyph glyph-name="neurology_2" unicode="&#xe81c;" d="M598 688c-11 0-20-9-20-20s9-19 20-19 19 9 19 19-9 20-19 20z m-196 0c-10 0-19-9-19-20s9-19 19-19 20 9 20 19-9 20-20 20z m522-422c17 25 25 57 25 84 0 41-18 79-49 105 7 17 10 34 10 51 0 55-32 105-79 129 8 59-31 114-89 128-22 52-72 87-125 87-49 0-93-28-117-70-24 42-68 70-117 70-53 0-103-35-125-87-58-14-96-69-89-128-47-24-79-74-79-129 0-17 3-34 10-51-31-26-49-64-49-105 0-27 8-59 25-84-16-23-25-50-25-78 0-36 14-71 41-97-14-81 51-163 135-163 0 0 1 0 1 0 28-48 80-78 135-78 58 0 110 35 137 85 27-50 79-85 137-85 55 0 107 30 135 78 0 0 1 0 1 0 75 0 137 65 137 143 0 6 0 13-2 20 27 26 41 61 41 97 0 28-9 55-25 78z m-443 288c-12 7-25 11-40 11-10 0-19-9-19-20s9-19 19-19c22 0 40-18 40-39v-372c-29 33-71 53-118 53-10 0-19-8-19-19s9-20 19-20c65 0 118-52 118-117 0-67-54-123-118-123-45 0-87 27-106 68-3 8-11 12-20 11-1 0-2 0-4 0-55-8-118 55-101 126 2 7-1 14-6 19-23 19-36 46-36 75 0 18 5 35 14 50 24-19 53-31 84-31 10 0 19 9 19 20s-9 20-19 20c-53 0-98 48-98 103 0 33 17 64 46 82 8 6 11 17 6 26-9 16-13 32-13 48 0 53 43 104 98 104 52 0 97-49 97-104 0-10 9-19 20-19s19 9 19 19c0 78-62 143-136 143-7 0-13-1-20-2 0 1 0 1 0 2 0 43 35 78 78 78 21 0 41-8 55-23 8-7 20-7 28 0 8 8 8 20 0 28-18 17-40 29-65 33 18 25 46 46 80 46 52 0 98-48 98-104v-153z m332-347c30 0 60 12 83 31 9-15 14-32 14-50 0-29-13-56-35-75-6-5-9-12-7-19 2-9 3-16 3-23 0-61-55-110-104-103-1 0-3 0-4 0-8 1-16-3-20-11-19-41-61-68-106-68-64 0-117 56-117 123 0 65 52 117 117 117 11 0 19 9 19 20s-8 19-19 19c-47 0-89-20-117-53v372c0 21 17 39 39 39 11 0 19 9 19 19s-8 20-19 20c-14 0-28-4-39-11v153c0 56 45 104 97 104 34 0 63-21 80-46-24-4-47-15-65-33-8-8-8-20 0-28 8-7 20-7 28 0 14 15 34 23 55 23 43 0 78-35 78-78 0-1 0-1 0-2-6 1-13 2-20 2-74 0-136-65-136-143 0-10 9-19 19-19s20 9 20 19c0 55 46 104 97 104 55 0 98-51 98-104 0-16-4-32-13-48-5-9-2-20 7-26 28-18 45-49 45-82 0-55-45-103-97-103-11 0-20-9-20-20s9-20 20-20z m-376 225c-8 8-20 9-28 1-63-56-163-11-163 73 0 11-9 20-19 20s-20-9-20-20c0-67 50-124 115-135-8-23-30-40-56-40-11 0-20-9-20-20s9-20 20-20c47 0 87 35 96 80 27 3 52 15 73 33 8 8 9 20 2 28z m-210-342c-11 0-20-9-20-19s9-20 20-20c52 0 97-48 97-103 0-11 9-20 20-20s19 9 19 20c0 77-62 142-136 142z m156 157c-66 0-123-37-153-90-5-9-2-21 7-26 10-5 22-2 27 7 23 41 67 69 119 69 11 0 19 9 19 20s-8 20-19 20z m351 84c-26 0-48 17-55 40 64 11 114 67 114 135 0 11-9 20-20 20s-19-9-19-20c0-54-44-97-98-97-24 0-47 8-65 24-8 8-20 7-27-1-8-8-7-20 1-28 21-18 47-30 74-33 8-45 48-80 96-80 10 0 19 9 19 20s-9 20-20 20z m39-241c-74 0-136-65-136-142 0-11 9-20 19-20s20 9 20 20c0 55 46 103 97 103 11 0 20 9 20 20s-9 19-20 19z m-3 67c-30 53-86 90-153 90-11 0-19-9-19-20s8-20 19-20c52 0 96-28 119-69 5-9 17-13 27-7 9 5 12 17 7 26z" horiz-adv-x="1000" />

<glyph glyph-name="ortop" unicode="&#xe81d;" d="M500-150c-276 0-500 224-500 500s224 500 500 500 500-224 500-500-224-500-500-500z m0 967c-257 0-467-210-467-467s210-467 467-467 467 210 467 467-210 467-467 467z m0-967c-142 0-278 61-373 167-2 2-4 6-4 10-11 180 51 324 61 345 17 116-11 238-36 320-2 6-1 12 4 17 94 91 217 141 348 141 113 0 220-37 308-107 5-3 8-10 7-16l-31-159c37-115 26-190 16-255-7-50-14-98-1-159 13-56 18-119 15-186 0-5-3-9-7-12-88-70-194-106-307-106z m-344 185c88-97 213-152 344-152 102 0 199 33 281 94 2 61-3 118-14 170-15 67-7 120 0 171 10 66 20 134-16 244-1 2-2 5-1 8l30 153c-82 62-178 94-280 94-119 0-231-44-318-125 27-86 52-209 34-328 0-1-1-3-1-4-1-2-68-146-59-325z m344-185c-34 0-68 3-102 10-7 2-12 8-13 15-5 51-24 133-82 233-7 9-49 69-15 123 13 21 38 36 66 39l127 12c12 2 25 2 38 0l127-12c27-3 52-18 66-39 34-54-8-114-15-123-58-100-77-182-83-233 0-7-6-13-13-15-33-7-67-10-101-10z m-83 41c54-10 111-10 166 0 10 75 40 156 86 235 0 1 0 1 1 2 0 0 37 48 14 85-9 13-24 22-42 24l-127 12c-10 1-21 1-32 0l-126-12c-18-2-33-11-42-24-23-38 14-84 14-85 1-1 1-1 2-2 47-80 76-159 86-235z m202 422c-22 0-50 4-78 23-1 1-2 2-3 2 0 1-13 12-38 12-26 0-38-11-39-12 0 0-1-1-2-2-56-37-112-19-114-18-42 12-69 36-80 70-29 90 67 217 72 222 53 75 55 166 52 213-1 8 5 16 13 18 64 12 131 13 195 0 9-2 14-10 14-18-4-47-1-138 52-213 4-5 101-132 72-222-11-34-38-58-81-71 0 0-14-4-35-4z m-59 50c42-27 83-15 85-14 32 10 51 26 58 49 20 61-41 159-66 192-55 76-62 166-60 220-51 9-104 9-154 0 1-54-6-144-60-220-25-33-86-131-67-192 8-23 27-39 58-49 2 0 44-13 85 14 6 5 26 20 61 20s54-15 60-20z" horiz-adv-x="1000" />

<glyph glyph-name="play-button" unicode="&#xe81e;" d="M500 850c-276 0-500-224-500-500s224-500 500-500 500 224 500 500-224 500-500 500z m173-527l-250-156c-5-3-11-4-17-4-5 0-10 1-15 3-10 6-16 16-16 28v312c0 12 6 22 16 28 10 5 22 5 32-1l250-156c9-6 14-16 14-27s-5-21-14-27z" horiz-adv-x="1000" />

<glyph glyph-name="03" unicode="&#xe81f;" d="M981 508h-103l21 12c7 4 9 12 5 19-2 4-7 7-12 7-2 0-4-1-7-2l-63-38c-4-2-6-6-7-10 0-1 0-1 0-2s0-1 0-2c0-4 3-7 6-10l64-37c2-1 5-2 7-2 5 0 9 3 12 7 4 6 2 14-5 18l-21 13h103c8 0 14 6 14 13s-6 14-14 14z m-879-40c-7-4-9-12-5-19 2-4 7-6 11-6 3 0 5 0 7 2l64 37c4 2 6 6 7 11 0 0 0 1 0 1 0 1 0 1 0 2-1 4-3 8-7 10l-64 38c-2 1-4 1-7 1-4 0-9-2-11-6-4-7-2-15 5-19l21-12h-104c-7 0-13-6-13-14s6-13 13-13h104l-21-13z m320-71c-6 4-12 5-20 5-36 0-86-44-124-110-21-36-35-73-40-105-6-36 1-61 20-72 5-4 12-5 19-5 36 0 86 44 124 110 21 36 36 73 41 105 6 36-1 61-20 72z m-157-214c4 28 17 62 37 95 35 61 79 97 100 97 3 0 5 0 6-1 8-5 11-22 7-45-4-28-18-62-37-95-35-61-79-97-101-97-2 0-4 0-6 1-8 5-10 22-6 45z m458 109c-39 66-89 110-125 110-7 0-13-1-19-5-19-10-26-36-20-72 5-32 19-69 40-105 39-66 89-110 124-110 8 0 14 2 20 5 19 11 26 36 20 72-5 32-19 69-40 105z m-131 82c2 1 4 1 6 1 22 0 66-36 101-97 20-33 33-67 37-95 4-23 1-40-6-45-2-1-4-1-7-1-21 0-65 36-100 97-20 33-33 67-37 95-4 23-1 40 6 45z m318-203c0 1-70 127-98 198-29 72-74 194-75 195-69 175-187 189-222 189-8 0-12-1-13-1-2 0-5 0-10 0-34 0-152-13-222-188 0-2-46-124-74-195-29-71-98-190-98-191-1-1-1-2-2-3-22-69-19-124 8-164 36-55 102-60 102-60 7-1 14-2 21-2 62 0 107 39 151 77 40 34 78 67 126 67 1 0 2 0 3 0 46-1 83-33 123-67 44-37 89-76 151-76 6 0 13 0 20 1 7 1 68 5 103 55 27 39 30 94 7 163 0 1 0 1-1 2z m-112-193c-6-1-12-1-17-1-52 0-92 34-134 70-42 36-86 73-143 73-1 0-2 0-3 0-56-2-99-38-141-74-42-36-81-70-133-70-6 0-11 1-18 2 0 0-54 5-83 47-22 33-23 80-4 140 8 14 71 124 99 193 29 72 74 195 75 196 63 159 166 171 196 171 6 0 10 0 10 0 0-1 1-1 2-1 1 0 2 1 4 1 1 0 4 0 7 0 31 0 134-12 197-171 0-1 46-123 75-195 28-70 92-187 99-200 19-60 18-106-4-138-28-40-82-43-83-43-1 0-1 0-1 0z m-308 638c0 3-1 7-3 10-12 15-29 24-47 24-2 0-4 0-6-1-8 0-13-7-12-14 0-7 6-13 13-13 1 0 1 0 1 0 2 1 3 1 4 1 10 0 18-5 26-14 2-3 6-5 10-5 3 0 6 1 9 3 3 2 4 5 5 9z m13-387l0 0c8 0 14 6 14 13l0 48c0 7-6 13-14 13-7 0-13-6-13-13l0-48c0-7 6-13 13-13z m0-21c-3 0-7-1-9-4-3-2-4-6-4-9l0-22c0-8 6-14 13-14h0c4 0 7 2 10 4 3 3 4 6 4 10l0 22c0 7-6 13-14 13z m0 190c-8 0-14-6-14-13l0-48c0-7 6-13 14-13l0 0c8 0 14 6 14 13v48c0 7-6 13-14 13z m0 95c0 0 0 0 0 0l0 0c-4 0-7-1-10-4-3-2-4-6-4-9l0-48c0-7 6-13 14-13 0 0 0 0 0 0 8 0 14 6 14 13v48c0 7-6 13-14 13z m11 94c-1 1-2 1-4 1-2 0-5-1-7-3-2 2-5 3-8 3-1 0-2 0-3-1-7-1-12-9-10-16 3-13 6-28 7-45 0-7 6-12 14-12 0 0 1 0 1 0 7 0 13 5 13 12 1 17 3 32 7 45 1 7-3 15-10 16z m-193-95c1-1 3-1 4-1 6 0 11 3 13 9 6 16 11 31 14 45l1 1c1 3 0 7-1 10-2 3-5 6-8 7-2 0-3 0-4 0-6 0-12-4-13-10l-1-1c-3-13-8-27-14-43-2-7 2-15 9-17z m-40-92c1-1 3-2 5-2 6 0 10 4 13 8 6 16 13 31 18 45 3 6 0 14-7 17-2 1-3 1-5 1-6 0-11-3-13-8-5-14-12-29-18-44-3-6 0-14 7-17z m-35-88c5 0 10 3 12 8 1 1 9 18 21 43 3 7 0 15-7 18-2 1-3 1-5 1-6 0-11-3-13-8-12-25-20-42-20-42-4-7-1-15 6-18 2-1 4-2 6-2z m105 266c2-1 5-2 7-2 5 0 9 2 12 6 8 12 18 23 29 32 6 5 7 13 2 19-2 3-6 5-11 5-3 0-6-1-8-3-13-10-25-23-35-38-4-6-2-14 4-19z m220 44c0 0 0 0 1 0 7 0 13 6 13 13 1 7-5 14-12 14-2 1-4 1-6 1-18 0-35-9-47-24-5-6-4-15 2-19 3-2 5-3 9-3 4 0 8 2 10 5 8 9 16 14 26 14 1 0 2 0 4-1z m83-76l0-1c4-14 9-29 15-45 2-6 7-9 13-9 1 0 3 0 4 1 4 1 6 3 8 7 1 3 2 7 0 10-5 16-10 30-14 43l0 1c-2 6-7 10-13 10-1 0-3 0-4 0-7-2-11-10-9-17z m36-95c5-15 12-29 18-45 2-4 7-8 13-8 2 0 3 1 5 2 7 3 10 11 7 17-6 15-13 30-18 44-2 5-7 8-13 8-2 0-3 0-5-1-7-3-10-11-7-17z m63-77c-3 5-7 8-13 8-2 0-4 0-5-1-7-3-10-11-7-18 12-25 20-41 21-43 2-5 7-8 12-8 2 0 4 1 6 2 7 3 10 11 6 18 0 0-8 17-20 42z m-145 240c11-9 21-20 29-32 3-4 7-6 12-6 2 0 5 1 7 2 6 5 8 13 4 19-10 15-22 28-35 38-2 2-5 3-8 3-5 0-8-2-11-5-2-3-3-7-3-10 0-4 2-7 5-9z" horiz-adv-x="1000" />

<glyph glyph-name="04" unicode="&#xe820;" d="M245 152c32 0 72 20 101 51 30 31 65 86 62 176-6 144-115 249-170 249-6 0-11-1-15-3-29-12-40-65-32-155 6-80 6-143 5-189 0-80-1-124 42-129 2 0 5 0 7 0z m136 226c3-80-27-130-54-157-30-32-63-43-82-43-1 0-3 0-4 0-18 2-19 33-18 102 0 47 1 111-6 192-10 112 12 127 17 129 1 0 2 0 4 0 39 0 138-89 143-223z m-326 418v-890c0-27 22-50 50-50h222c25 0 45 19 47 43l9 89c4 38 28 70 63 85 104 43 177 106 213 181 12 21 19 35 23 42l6 1c25 1 45 22 45 47v11c0 24-18 44-42 46l-4 0c-8 20-18 36-22 41-24 65-76 126-151 178-92 64-142 146-163 190-11 21-33 35-57 35l-2 0-194-5c-24-1-43-20-43-44z m652-452c0-11-9-20-20-20-1 0-2 0-2-1l-13-2c-1 0-1 0-1 0-2 0-3 1-4 3-11 16-6 36 0 49 0 2 2 3 4 3l18-1c10-1 18-10 18-20v-11z m-53-44c-2-5-6-11-9-18-18 22-25 44-24 68 2 27 12 49 30 66 2-4 5-10 8-16-8-3-14-9-17-17-6-15-15-46 3-73 2-4 5-7 9-10z m-23-42c-34-66-101-122-195-161-44-18-74-59-79-106l-9-89c-1-11-10-19-21-19h-45c1 11 2 21 3 31 16 158 19 186 160 249 84 37 141 118 141 201 1 81-50 148-141 189-119 54-195 186-231 264l80 2c14 0 27-8 33-21 23-46 75-133 172-200 67-46 115-101 139-158-26-22-41-51-43-88-3-49 25-82 36-94z m-197-71c-155-69-159-107-175-270 0 0-2-24-3-34h-151c-13 0-23 10-23 23v890c0 10 7 18 17 18l86 2c37-82 118-227 249-287 81-36 126-95 126-165-1-73-51-144-126-177z m503 344l-61-37c-2-1-5-1-7-1-5 0-9 2-11 6-4 6-2 14 4 18l21 12h-101c-7 0-13 6-13 13 0 8 6 14 13 14h101l-21 12c-6 3-8 11-4 18 2 4 6 6 11 6 2 0 5-1 7-2l61-36c4-2 6-6 7-10 0-1 0-1 0-2 0 0 0-1 0-1-1-5-3-8-7-10z m-3-179l-62-37c-2-1-4-2-6-2-5 0-9 3-12 7-3 6-1 14 5 18l21 12h-101c-7 0-13 6-13 13 0 7 6 13 13 13h100l-20 12c-6 4-8 12-5 18 3 4 7 7 12 7 2 0 4-1 6-2l62-37c4-2 6-5 6-10 1 0 1-1 1-1 0 0 0-1-1-2 0-4-2-7-6-9z m-156-162h100l-20 12c-6 4-8 12-5 18 3 4 7 7 12 7 2 0 4-1 6-2l62-37c4-2 6-5 7-10 0 0 0-1 0-1 0-1 0-1 0-2-1-4-3-7-7-10l-62-36c-2-1-4-2-6-2-5 0-9 3-12 7-3 6-1 14 5 18l21 12h-101c-7 0-13 6-13 13s6 13 13 13z" horiz-adv-x="1000" />

<glyph glyph-name="05" unicode="&#xe821;" d="M352 423c-22 0-40-18-40-40 0-23 18-41 40-41s41 18 41 41c0 22-18 40-41 40z m0-58c-9 0-17 8-17 18 0 9 8 17 17 17 10 0 18-8 18-17 0-10-8-18-18-18z m311-23c23 0 41 18 41 41 0 22-18 40-41 40-22 0-40-18-40-40 0-23 18-41 40-41z m0 58c10 0 18-8 18-17 0-10-8-18-18-18-9 0-17 8-17 18 0 9 8 17 17 17z m107-238c-25 58-31 115-18 173 3 9 6 19 8 30 2-1 4-1 6-1 2 0 4 0 5 1l95 2c1 0 1 0 2 0 13 3 21 15 19 28-2 19-1 41-1 65 0 53 1 113-23 160-25 48-83 59-135 69-28 6-55 11-75 22-36 20-47 73-50 102-2 18-16 30-34 30h-130c-18 0-32-12-34-30-3-29-14-82-50-102-20-11-47-16-75-22-52-10-110-21-135-69-24-47-23-107-23-160 0-23 0-44-1-63-2-14 8-27 21-31 1 0 2 0 3 0l87 0c2 0 4-1 6-1 5 0 11 2 16 5 2-10 4-20 8-28 11-53 3-112-24-176-9-21-19-42-29-63-41-89-80-172-32-241 2-3 5-5 9-5h634c4 0 7 2 9 5 48 69 9 152-32 241-9 19-18 39-27 59z m-578-281c-35 56-1 129 38 212 10 21 20 42 29 64 12 27 20 54 25 80 0 0 0 0 0-1 0 0 6-15 12-37 1-5 6-9 11-9 1 0 2 1 3 1 3 1 5 2 7 5 1 3 2 6 1 9-6 23-12 39-12 39-2 5-6 8-11 8-1 0-3 0-4-1-2-1-4-2-5-4 3 20 4 38 3 57 17-14 39-21 66-22 2 0 4 0 5 0 84 0 126 72 129 90 0 3 0 6-2 9-2 2-4 4-7 5-1 0-2 0-2 0-6 0-11-4-12-10-2-12-37-71-106-71-1 0-3 0-4 0-28 1-49 10-63 27-27 35-18 95-12 119 14 66-14 94-15 95-2 3-5 4-8 4-3 0-6-1-8-4-5-4-5-11 0-16 0 0 19-22 8-75-3-13-6-34-6-56 0-1-1-3-5-6-3-3-7-5-10-5l0 0c-1 1-2 1-3 1l-87 0c-2 1-4 4-3 6 2 20 1 42 1 65 0 51-1 108 20 149 20 38 70 48 119 58 31 6 59 11 82 24 45 25 58 86 62 120 1 5 5 9 11 9h130c6 0 11-4 11-9 4-34 17-95 62-120 23-13 52-18 82-24 49-10 99-20 119-58 21-41 21-98 20-149 0-24 0-47 2-68 0-1-1-2-1-2l-94-2c-1 0-2 0-3-1 0 0-1 0-1 0-1 0-1 1-2 1 0 0-1 1-1 2 1 2 0 4 0 6 0 18-3 38-7 59-11 51 1 68 2 70 2 2 4 5 4 8 0 3-2 6-4 8-2 2-5 4-8 4-3 0-6-2-8-4-2-2-23-25-9-90 5-24 12-70-2-105 0-1-1-2-1-3-3-6-6-12-10-16-14-20-37-31-69-33-2 0-5 0-7 0 0 0 0 0 0 0-69 0-101 69-102 77-1 5-6 9-12 9 0 0-1 0-2 0-3 0-5-2-7-5-2-2-2-5-2-8 3-20 45-96 125-96 3 0 6 0 9 0 29 2 52 11 70 25-1-16-1-33 1-49-2 2-4 4-6 4-1 1-3 1-4 1-5 0-9-3-11-7 0-1-6-17-12-40-1-3 0-6 1-9 2-2 4-4 7-5 1 0 2 0 3 0 5 0 10 3 11 8 6 22 12 37 12 38 0 0 0 0 0 0 4-28 12-56 24-84 8-21 18-40 27-60 39-83 73-156 38-212h-622z m-133 366h51l-2-2c-3-1-5-4-6-7-1-3 0-6 1-8 3-4 6-6 10-6 2 0 4 1 6 2l39 23c3 1 5 4 6 8 0 1 0 1 0 2 0 0 0 0 0 1-1 4-3 7-6 9l-39 23c-2 1-4 1-6 1-4 0-7-2-10-6-1-2-2-5-1-8 1-3 3-6 6-7l2-2h-51c-6 0-12-5-12-11 0-7 6-12 12-12z m-2-113h51l-3-1c-2-2-4-4-5-7-1-3 0-6 1-9 2-4 6-6 10-6 2 0 4 1 6 2l39 23c3 2 5 5 6 9 0 0 0 0 0 1 0 0 0 1 0 1-1 4-3 7-6 9l-39 23c-2 1-4 1-6 1-4 0-7-2-10-5-1-3-2-6-1-9 1-3 3-6 6-7l2-2h-51c-7 0-12-5-12-11 0-7 5-12 12-12z m104-107c0 1 0 1 0 1 0 1 0 1 0 2 0 4-2 7-5 8l-39 23c-2 1-4 2-6 2-4 0-8-2-10-6-2-2-2-5-1-8 0-3 2-6 5-7l3-2h-52c-6 0-11-5-11-12 0-6 5-11 11-11h52l-3-2c-3-1-5-4-5-7-1-3-1-6 1-9 2-3 6-5 10-5 2 0 4 0 6 1l39 23c3 2 5 5 5 9z m683 242c-3-2-5-5-5-9l0 0c0-1 0-1 0-1 0-1 0-1 0-2 0-4 2-7 5-8l39-23c2-1 4-2 6-2 4 0 8 2 10 6 3 5 2 12-4 15l-3 2h52c6 0 11 5 11 12 0 6-5 11-11 11h-51l2 2c6 3 8 10 4 15-2 4-6 6-10 6-2 0-4 0-5-1l-40-23z m113-123c0 6-5 11-11 11h-51l2 2c3 1 5 4 6 7 0 3 0 6-2 9-2 3-5 5-10 5-2 0-4 0-5-1l-39-23c-3-2-5-5-6-8l0-1c0 0 0-1 0-1 0-1 0-1 0-2 1-3 3-6 6-8l39-23c1-1 3-2 5-2 4 0 8 2 10 6 2 3 2 6 2 9-1 3-3 5-6 7l-3 1h52c6 0 11 5 11 12z m-11-106h-51l3 2c5 3 7 10 4 15-2 4-6 6-10 6-2 0-4-1-6-2l-39-23c-3-1-5-4-5-8l0 0c-1-1-1-1-1-2 0 0 0 0 1-1 0-4 2-7 5-8l39-24c2-1 4-1 6-1 4 0 8 2 10 6 3 5 1 12-4 15l-3 2h51c7 0 12 5 12 12 0 6-5 11-12 11z m-435 23c-6 0-10-6-10-14s4-15 10-15 9 6 9 15-4 14-9 14z m176 48l1 0c6 0 11 5 12 11 0 12 2 25 5 39 0 3-1 6-2 8-2 3-5 4-8 5 0 0-1 0-2 0-5 0-10-4-11-9-3-15-5-29-5-42-1-6 4-12 10-12z m24-72c1 3 1 6 0 9-4 10-7 19-9 29 0 2-1 4-1 7-1 6-6 10-12 10 0 0-1 0-1 0-3-1-6-2-8-5-2-2-2-5-2-8 1-4 1-7 2-10 2-10 5-20 9-32 2-4 6-7 11-7 2 0 3 0 4 1 3 1 5 3 7 6z m34-72c1 2 1 6-1 8-3 7-6 14-9 20l-1 1c-2 5-5 11-7 16-2 4-6 6-11 6-1 0-3 0-5-1-5-3-8-10-5-15 2-5 5-10 7-15l1-1c3-7 6-14 9-21 2-4 6-6 11-6 2 0 3 0 5 1 3 1 5 4 6 7z m16-29c-2 4-6 7-11 7-1 0-3 0-4-1-6-2-9-9-7-15 5-12 9-25 12-37 2-5 6-8 12-8 1 0 2 0 2 0 7 2 10 8 9 14-4 13-8 26-13 40z m-445 236c-1 0-2 0-2 0-3-1-6-2-8-5-1-2-2-5-2-8 3-14 5-27 5-39 1-6 6-11 12-11l0 0c7 1 12 6 11 12-1 13-2 27-5 42-1 5-6 9-11 9z m5-80c0 0-1 0-2 0-5 0-10-4-11-10 0-2-1-5-1-7-2-10-5-19-9-29-1-3-1-6 0-9 1-3 4-5 7-6 1-1 2-1 4-1 4 0 9 3 10 8 5 11 8 21 10 32 1 3 1 6 2 9 0 3-1 6-2 8-2 3-5 4-8 5z m-23-77c-2 1-4 1-5 1-5 0-9-2-11-6-2-5-5-10-7-16l-1-1c-3-6-6-13-9-20-2-2-2-5-1-8 1-3 3-6 6-7 2-1 3-1 5-1 4 0 8 3 10 7 4 7 7 13 10 20l1 1c2 5 5 10 7 15 3 5 0 12-5 15z m-35-73c-1 1-3 1-4 1-5 0-9-3-11-7-5-14-9-27-13-40-1-6 2-12 9-14 0 0 1 0 2 0 6 0 10 3 12 8 3 13 7 25 12 37 2 6-1 13-7 15z" horiz-adv-x="1000" />

<glyph glyph-name="06" unicode="&#xe822;" d="M116 93c-1 6-7 11-13 11h-1c-7 0-12-5-13-11-2-16-12-39-33-81-18-36-12-61-3-74 13-22 37-29 48-29 0 0 1 0 1 0 0 0 1 0 1 0 11 0 36 7 49 29 8 13 14 38-4 74-21 42-30 65-32 81z m14-142c-7-11-21-16-28-17-7 1-21 6-27 17-8 12-6 29 4 49 10 20 18 36 23 49 6-13 13-29 23-49 10-20 12-37 5-49z m775 389c7 8 12 18 12 29v53c13 5 22 18 22 32v20c0 18-15 34-34 34h-233c-19 0-34-15-34-34v-20c0-14 9-27 22-32v-53c0-11 5-21 12-29-21-10-51-33-51-78v-335c0-23 14-44 36-52 29-11 72-17 130-17l2 0 0 0c58 0 102 6 130 17 22 8 36 29 36 52v335c0 45-30 68-50 78z m-118-456c-54 0-95 5-121 15-11 4-19 15-19 28v263h282v-263c0-13-7-24-19-28-25-10-66-15-121-15h-2l0 0z m-115 598h233c5 0 8-4 8-8v-20c0-4-3-8-8-8h-233c-5 0-8 3-8 8v20c0 4 3 8 8 8z m178-220c-2-3-4-6-4-6l-115 0c-1 1-2 3-4 6h123z m3 34v-9h-130v9h130z m0 33v-7h-130v7h130z m-153 26c-8 0-14 6-14 14v51h205v-51c0-8-6-14-14-14h-177z m-2-33v-48c0-15 11-44 33-44h115c21 0 33 29 33 44v49c1 0 1 0 1-1 18-5 49-21 49-60v-47h-282v47c0 39 31 54 51 60z m188-249v64c0 15-12 27-27 27h-143c-14 0-26-12-26-27v-64c0-15 12-27 26-27h143c15 0 27 12 27 27z m-170 64c0 1 0 1 0 1h143c1 0 1 0 1-1v-64c0 0 0-1-1-1h-143c0 0 0 1 0 1v64z m-66 428l7 8c11 11 11 28 0 39l-9 10 106 107c4-2 8-3 12-3 8 0 16 4 22 10l3 3c6 6 10 14 10 22s-4 17-10 23l-49 49c-6 6-14 10-22 10-9 0-17-4-23-10l-3-3c-6-6-9-14-9-23 0-4 1-7 2-10l-107-107-10 10c-6 5-13 8-20 8-8 0-15-3-20-8l-8-8c-8-7-10-19-6-30l-248-248c-3-3-19-17-25-24-14-18-9-34-5-47 0-1 1-1 1-2-1-1-2-2-3-2l-8-9c-4-4-5-10-2-15-10-11-25-29-35-43-5-6-5-17-4-26l-99-98c-5-5-5-13 0-18 3-3 6-4 9-4s7 1 10 4l98 98c1 0 3 0 4 0 4 0 14 1 21 6 13 9 31 25 42 35 2-1 4-2 7-2 3 0 6 1 9 4l8 8c2 2 3 4 3 6l20-4c2 0 5 0 7 0 10 0 20 4 27 11l267 267c3-1 7-2 10-2 7 0 14 3 20 8z m-41 19l-61-61-68 67 61 62c3 2 4 5 4 9 0 3-1 6-4 9l-1 1c-1 1-1 2 0 3l8 8c0 0 1 1 2 1 0 0 1-1 1-1l88-88c1-1 1-2 0-3l-8-7c0-1-1-1-1-1-1 0-2 0-2 1l-1 1c-2 2-6 3-9 3-3 0-7-1-9-4z m107 211c0 4-1 7-4 9-1 1-1 2-1 3 0 2 0 4 1 5l4 3c1 1 2 2 4 2 1 0 3-1 4-2l49-49c1-1 2-3 2-5s-1-3-2-4l-3-3c-1-1-2-2-4-2s-3 1-4 2c-3 2-6 4-10 4-3 0-6-2-9-4l-113-114-32 31 114 115c3 2 4 6 4 9z m-430-488l-21 22 0 0c1 3 2 6 1 9-1 5-2 9-3 12-4 13-5 17 1 24 2 4 13 14 21 21l177 177 67-67-194-195c-3-2-6-4-9-4-1 0-2 1-3 1l-24 4c-1 0-2 0-2 0-3 0-5 0-7-1l-4-3z m-36-4c0 0 1 1 1 2l1 0 11-11-1 0c-1 0-1-1-2-2-9-7-31-27-45-37 0 0-1-1-3-1 0 2 0 3 0 4 11 15 30 36 38 45z" horiz-adv-x="1000" />

<glyph glyph-name="07" unicode="&#xe823;" d="M81 539c2 0 4 0 6 0 24 2 103 25 204 55 139 40 312 91 359 91 3 0 5-1 6-1l9-1c60-11 162-29 258-186 2-3 7-6 11-6h0c7 0 13 6 13 13 0 2-1 4-1 5-6 19-59 191-284 268-18 6-37 9-57 9-9 0-18-1-27-2-233-34-413-76-533-127-16-7-28-21-33-38-4-17-1-34 10-48 16-21 37-32 59-32z m524 222c17 0 34-3 49-8 89-31 149-78 189-120-68 56-130 67-174 75l-9 1c-2 1-6 1-9 1-52 0-219-49-367-92-91-27-178-52-199-54-1 0-3 0-4 0-14 0-28 8-39 23-6 7-8 17-5 26 2 9 9 17 18 21 118 50 295 92 527 125 8 1 16 2 23 2z m-501-364c2 0 4 1 6 2 3 2 5 4 6 8 1 3 1 6-1 9l-43 73c-2 3-6 6-11 6 0 0-1 0-1 0-4-1-8-3-10-6l-43-73c-3-6-1-14 5-17 2-1 4-2 6-2 5 0 9 2 11 6l19 33v-127c0-7 6-13 13-13s13 6 13 13v127l19-33c2-4 6-6 11-6z m883-226c-2 1-4 2-6 2-5 0-9-3-11-6l-19-33v127c0 7-6 13-13 13-7 0-13-6-13-13v-127l-19 33c-2 4-6 6-11 6-2 0-4-1-6-2-3-2-5-4-6-8-1-3 0-6 1-9l43-72c2-4 6-7 11-7h0c4 0 9 3 11 7l43 72c3 6 1 14-5 17z m-564-226c-14 2-29 4-42 7-1 0-2 0-3 0-6 0-11-4-12-10-1-3 0-6 2-9 1-3 4-5 8-6 14-3 29-5 44-7 1 0 1 0 2 0 6 0 11 5 12 11 1 7-4 13-11 14z m-279 170c-12 23-15 38-15 39-1 5-7 10-12 10-1 0-2 0-3-1-3 0-6-2-8-5s-3-6-2-10c0 0 4-18 17-44 2-4 6-7 11-7 2 0 4 0 6 1 6 3 9 11 6 17z m195-152c-14 4-28 9-40 14-2 1-4 1-5 1-5 0-10-3-12-8-1-3-1-6 0-9 1-3 4-6 7-7 13-6 28-11 42-15 2-1 3-1 4-1 6 0 11 4 12 9 1 3 1 7-1 10-1 3-4 5-7 6z m-174 116c-2 4-6 6-10 6-2 0-5-1-7-3-3-2-5-5-5-8-1-3 0-7 2-10 9-12 19-24 30-35 2-2 5-3 9-3 3 0 6 1 9 3 2 3 3 6 3 9 0 4-1 7-3 9-10 10-19 21-28 32z m95-83c-12 7-24 15-35 23-2 2-5 3-8 3-4 0-7-2-10-5-4-6-3-14 3-18 12-9 24-17 38-25 2-1 4-2 6-2 5 0 9 3 11 7 3 6 1 13-5 17z m338-48c-1 0-2 0-3-1-13-2-28-4-42-5-7-1-12-7-12-14 1-7 6-12 13-12 0 0 1 0 1 0 15 2 30 4 45 7 3 0 6 2 8 5 2 3 3 6 2 9-1 6-6 11-12 11z m214 146c-2 1-4 1-6 1-4 0-9-2-11-7-7-12-14-24-23-35-2-3-2-6-2-10 1-3 2-6 5-8 2-2 5-2 8-2 4 0 7 1 10 5 9 12 17 25 24 39 2 3 2 6 1 9-1 3-3 6-6 8z m-58-69c-4 0-7-2-9-4-10-10-21-19-33-27-2-2-4-4-5-8-1-3 0-6 2-9 2-4 6-6 10-6 3 0 6 1 8 3 12 8 24 18 35 29 5 5 6 13 1 18-3 2-6 4-9 4z m-244-85c-15 0-30 0-44 1l-1 0c-6 0-12-5-12-12-1-7 5-13 12-13 14-1 29-1 45-1 7 0 12 5 12 12 0 7-5 13-12 13z m336 318c-7 0-12-6-12-13l0-2c0-5 0-16-2-33-1-3 0-6 3-9 2-3 5-4 8-5 0 0 1 0 1 0 7 0 12 5 13 11 2 17 2 30 2 36 0 2 0 3 0 3 0 7-6 12-13 12z m-165-284c-2 0-4 0-5-1-13-6-26-11-40-15-6-2-10-10-8-16 2-5 7-9 12-9 2 0 3 0 4 1 15 4 29 10 43 16 6 3 9 11 6 17-2 5-7 7-12 7z m159 204c-1 0-2 0-3 0-6 0-11-4-12-10-4-14-8-28-13-41-1-3-1-6 1-9 1-4 4-6 7-7 1-1 3-1 4-1 5 0 10 4 12 8 5 14 10 29 13 44 1 4 0 7-1 10-2 3-5 5-8 6z m-33 20c3 0 5 1 8 2 2 2 4 5 5 8 0 4 0 7-2 10-2 3-21 29-39 44 4 8 9 16 13 25 1 2 2 3 3 5 99 9 124 63 125 65 3 7 0 14-6 17-2 1-3 1-5 1-5 0-10-3-12-7 0-1-5-11-21-23-4 4-14 13-25 23 23 24 27 45 27 47 2 7-3 13-10 15-1 0-1 0-2 0-6 0-11-5-13-11 0 0-3-16-22-35-15 12-27 22-37 29 22 35 19 61 19 62-1 7-6 12-13 12 0 0 0 0-1 0-7-1-12-7-11-14 0 0 1-20-16-47-10 6-31 16-49 25 19 44 14 72 14 73-1 6-6 11-13 11 0 0-1-1-2-1-7-1-11-7-10-14 0 0 3-23-12-59-14 5-49 18-74 26 3 29 0 53-1 54-1 6-6 11-12 11-1 0-1 0-2 0-3-1-6-3-8-5-2-3-3-6-3-10 0 0 3-20 1-44-16 3-58 12-91 15v1c0 17 0 32 0 37-1 7-6 12-13 12 0 0-1 0-1 0-3 0-6-2-9-4-2-3-3-6-3-9 1-6 1-25 1-35-8 0-17 0-26 0-20 0-58 0-87-5-6 0-63-6-245-68-4-1-6-3-8-6-1-3-1-7 0-10 2-5 6-9 12-9 1 0 2 1 4 1 183 63 238 67 239 67 0 0 0 0 1 0 20 3 50 5 84 5 8 0 17 0 25-1-2-11-4-22-7-31-3 0-6 0-10 0-17 0-33-1-50-4-1 0-2 1-3 1-2 0-4-1-6-2l-1-1c-61-11-105-37-137-56-8-4-15-8-21-12l-4-2c-24-12-74-38-93-46-3-1-7-3-10-4-12-5-22-12-30-20-7-6-27-24-18-50 10-33 45-41 78-48l7-2c14-3 28-8 37-12 1 0 1-1 1-1 5-2 9-5 12-7 85-80 197-80 234-80l5 0c1-19-2-45-2-46-1-4 0-7 2-10s5-4 9-4c0 0 1 0 1 0 7 0 12 4 13 11 0 1 3 27 2 50 20 0 48 3 61 5 1-20-3-43-3-44 0-3 1-6 3-9 2-3 5-4 8-5 1 0 2 0 2 0 6 0 12 5 13 11 0 1 3 28 2 51 19 5 42 13 54 17 6-18 9-40 9-40 1-6 7-11 13-11 0 0 1 0 2 0 7 1 11 8 10 15 0 1-4 25-11 46 18 10 38 24 47 31 12-16 23-38 23-38 2-4 7-7 12-7 1 0 3 0 5 1 3 2 5 4 7 7 1 4 0 7-1 10-1 1-13 25-26 43 15 15 32 37 42 50 12-11 27-31 32-38 2-3 6-5 10-5z m-329-65c-3 0-7 0-10 0-67 0-153 8-222 72-4 4-10 8-17 12-50 43-31 83-20 107 2 3 3 6 4 9 16 8 32 16 44 22l4 2c7 4 14 9 22 13 22 13 48 28 81 40-11-13-17-25-18-27-11-21-16-43-16-67 0-83 69-150 154-150s155 67 155 150c0 22-5 43-14 62-3 9-7 18-13 25 16-4 34-10 48-16 10-3 39-17 57-25l10-5c5-3 22-13 35-21 6-4 12-8 15-9 1-1 4-4 7-6l2-1c1-1 3-3 4-4-1 0-3 0-4 0-5 0-9-3-11-7-1-3-2-6-4-9-1-1-1-1-1-1-4-8-10-20-19-33-11-17-36-49-53-64-16-12-46-32-63-40-18-7-52-19-72-23-17-2-54-6-75-6 0 0-3 0-7 0l-3 0z m334 234c-8-6-17-11-27-16 0 0-24 15-30 18 9 8 17 16 24 24 8-6 19-15 33-26z m-3-34l1 0-2 2c8 5 16 10 24 15 8-7 16-13 21-18-12-6-26-10-41-13 3 6 1 10-3 14z m-78 50l-4 1c-11 6-26 13-39 18 9 8 17 17 23 27 16-8 35-18 45-23-7-8-15-16-25-23z m-69 30c-19 8-44 15-60 19 8 9 14 19 18 30 22-7 52-18 67-24-7-9-15-17-25-25z m-89 26c-6 1-17 3-27 5-29 5-40 7-43 7l0 0c3 10 5 21 6 32 31-3 70-11 86-15-5-11-12-21-22-29z m-31-20l22-4c6-3 28-18 37-45 0-1 0-1 1-2 7-16 11-34 11-52 0-69-58-125-129-125-71 0-129 56-129 125 0 20 4 38 13 56 0 0 19 34 48 52 17 2 34 4 51 4 6 0 13 0 19-1 1 0 5 0 11 0l4-1c3 0 26-4 41-7z m-413-130c7 6 14 11 23 15 3 1 6 3 9 4 4 1 10 4 17 7-10-30-9-57 6-83l-6 2c-29 6-54 12-60 31-1 3-4 10 11 24z m317 92c-25 0-46-20-46-45 0-25 21-45 46-45 25 0 45 20 45 45 0 25-20 45-45 45z m0-65c-11 0-20 9-20 20 0 11 9 20 20 20 11 0 20-9 20-20 0-11-9-20-20-20z" horiz-adv-x="1000" />

<glyph glyph-name="08" unicode="&#xe824;" d="M840 580l-7 14c-27 59-61 133-74 199-6 30-33 52-63 52h-396c-31 0-58-22-64-52-13-66-47-140-74-199l-7-14c-37-81-48-141-42-230 6-72 42-329 57-436 5-33 34-58 67-58h167c34 0 63 26 66 60l28 242 27-242c4-34 33-60 67-60h168c33 0 60 24 66 56 16 97 55 330 61 402 6 90-11 187-47 266z m-80-699h-168c-22 0-40 16-42 38l-38 335c26-12 69-18 115-18 35 0 103 4 158 33 6 4 8 11 5 17-2 4-7 7-11 7-2 0-4-1-6-2-50-27-113-31-147-31-56 0-100 11-114 21v161c0 7-5 13-12 13-7 0-13-6-13-13v-161c-15-11-61-22-116-22-39 0-96 6-144 32-2 1-4 2-6 2-5 0-9-3-11-7-3-6-1-13 5-17 41-22 97-34 158-34 43 0 83 6 110 16l-37-332c-3-22-21-38-42-38h-167c-21 0-39 16-42 36-15 107-52 363-57 435-6 84 5 141 40 218l7 14c27 60 62 135 76 204 4 19 20 32 39 32h396c19 0 35-13 39-32 13-69 48-144 76-204l6-14c35-75 51-168 45-255-5-70-44-302-61-399-3-20-21-35-41-35z m-442 681c2-4 6-7 11-7 2 0 3 0 5 1 3 1 5 4 6 7s2 6 0 9c-5 13-13 27-22 40-3 4-7 6-11 6-2 0-5-1-7-3-3-2-4-4-5-8-1-3 0-6 2-9 9-12 16-24 21-36z m-148-223l2 0c3 0 7 0 10 0 3 1 6 2 8 5 3 2 4 5 4 8-1 7-6 12-13 12l0 0c-3 0-6 0-9 0l-1 0c-4 0-7 0-11 0l-1 0c-6 0-12-5-12-11 0-4 1-7 3-9 3-3 6-4 9-4 4-1 7-1 11-1z m93 51c-2 0-5-1-7-2-11-8-23-13-36-17-6-2-10-9-8-16 2-5 6-8 12-8 1 0 2 0 4 0 15 5 29 11 42 20 3 2 5 4 5 8 1 3 0 6-1 9-3 4-7 6-11 6z m30 248c0 4-1 7-3 9-18 20-32 32-32 32-2 2-5 3-8 3-4 0-7-1-10-4-4-5-4-13 2-17 1-2 14-13 29-30 2-3 6-4 9-4 3 0 6 1 9 3 2 2 4 5 4 8z m32-185c-2 1-4 2-5 2-5 0-9-3-12-7-6-13-13-24-22-34-4-5-4-13 2-17 2-2 5-3 8-3 3 0 7 1 9 4 10 11 19 24 26 39 3 6 0 13-6 16z m15 85c0 0-1 0-1 0-7 0-12-6-11-13 0-2 0-4 0-6 0-3 0-5-1-8-1-9-2-17-4-25-1-3-1-7 1-10 2-2 4-5 7-5 1-1 3-1 4-1 5 0 10 4 12 10 2 9 4 18 5 28 0 4 1 7 1 11 0 3 0 5-1 8 0 6-5 11-12 11z m327 11c2 0 3-1 5-1 5 0 9 3 11 8 5 11 12 23 21 35 2 3 2 6 2 10-1 3-3 6-5 8-3 1-5 2-8 2-4 0-7-2-10-5-9-14-17-27-22-40-2-3-2-7-1-10 2-3 4-5 7-7z m10-79c2 3 2 6 1 9-2 8-3 17-4 25-1 3-1 6-1 9 0 2 0 3 0 5 1 7-4 13-11 13l-1 0c-7 0-12-5-12-11-1-3-1-5-1-7 0-4 1-8 1-12 1-9 3-19 5-28 2-6 7-9 12-9 1 0 2 0 3 0 4 1 6 3 8 6z m16-29c-3 4-7 7-12 7-1 0-3-1-5-1-6-4-9-11-6-17 7-14 16-27 26-39 2-3 6-4 9-4 3 0 6 1 8 3 6 4 6 12 2 17-9 10-16 22-22 34z m66 213c6 5 6 12 2 18-3 2-6 4-10 4-3 0-6-1-8-3-1-1-15-13-32-32-2-3-3-6-3-9 0-3 2-6 4-9 3-2 6-3 9-3 3 0 6 2 9 4 15 17 28 29 29 30z m22-290c-13 4-25 10-36 17-2 1-5 2-7 2-4 0-8-2-11-6-2-2-2-6-1-9 0-3 2-6 5-8 13-8 27-15 42-19 1-1 3-1 4-1 5 0 10 4 12 9 2 6-2 13-8 15z m60-6c0 0 0 0 0 0-4 0-8-1-12-1l-1 0c-3 0-5 0-8 1l-1 0c-6 0-11-6-12-12 0-4 1-7 3-9 3-3 6-4 9-4 3 0 7 0 10 0h0c4 0 9 0 13 0 3 0 6 2 8 4 3 2 4 6 4 9-1 7-6 12-13 12z m-666-81c-2 3-6 4-9 4-3 0-6-1-8-3-6-4-6-12-2-17 1-2 13-15 33-32 3-2 5-3 8-3 4 0 7 2 10 5 4 5 3 13-2 17-19 16-30 29-30 29z m29-159c-4 0-8-1-11-1-3 0-6-1-9-4-2-2-3-5-3-9 1-6 6-12 13-12l0 0c5 1 9 1 14 2 3 0 6 2 8 5 2 3 3 6 2 9-1 6-6 11-12 11-1 0-1 0-2-1z m105 50c-1-4 0-8 2-11 3-3 6-5 10-5 3 0 6 1 8 2 9 7 14 12 15 13 4 3 6 8 4 13-2 5-6 8-11 9-7 0-15 2-22 3-1 0-2 0-3 0-6 0-11-4-12-9-1-4 0-7 2-10 2-2 4-4 7-5z m-67-38c-6-2-9-10-6-16 2-4 6-7 11-7 2 0 4 0 5 1 13 5 26 12 40 21 6 3 8 11 4 17-2 4-6 6-10 6-3 0-5-1-7-2-13-8-25-14-37-20z m-16 73c13-8 27-15 40-21 2-1 3-1 5-1 5 0 9 3 11 7 2 3 2 7 0 10-1 3-3 5-6 7-13 5-25 11-37 19-2 1-4 2-7 2-4 0-8-2-10-6-2-3-3-6-2-9 1-4 3-6 6-8z m600 63c-3 0-7-1-9-4 0 0-11-13-30-28-5-5-6-13-2-18 3-3 6-4 10-4 3 0 6 1 8 2 20 17 32 30 33 32 4 5 4 13-1 17-3 2-6 3-9 3z m-27-163c-3 0-7 0-11 1 0 0-1 0-2 0-6 0-11-4-12-10 0-4 0-7 2-10 2-2 5-4 8-5 5 0 10-1 14-1l1 0c6 0 12 5 12 12 0 6-5 12-12 13z m-119 75c-1 0-2 0-3-1-7-1-15-2-22-3-5-1-9-4-11-9-1-4 0-9 4-13 1-1 6-5 15-12 2-2 5-3 8-3 4 0 7 2 10 5 2 3 3 7 2 11 3 1 6 3 7 6 2 2 3 6 2 9-1 6-6 10-12 10z m70-62c-12 5-24 11-37 19-2 2-4 2-6 2-5 0-9-2-11-6-2-3-2-6-2-9 1-3 3-6 6-8 14-8 27-15 40-21 2-1 3-1 5-1 5 0 9 3 11 7 3 7 0 14-6 17z m10 95c-3 0-5-1-7-2-12-7-24-14-37-19-3-1-5-4-6-7-2-3-2-6 0-9 2-5 6-8 11-8 2 0 4 0 5 1 14 6 27 13 40 21 3 2 5 5 6 8 0 3 0 6-2 9-2 4-6 6-10 6z" horiz-adv-x="1000" />

<glyph glyph-name="09" unicode="&#xe825;" d="M168 386c-6-1-11-7-11-13 0-7 5-12 11-13l16-2c0 0 1 0 1 0l1 0c21 1 46 2 73 2 113 0 237-10 238-11 0 0 1 0 1 0s1 0 1 0c1 1 125 11 237 11 28 0 52-1 74-2l0 0c1 0 1 0 2 0l16 2c6 1 11 6 11 13 0 6-5 12-11 13-81 8-185 44-186 44-2 1-3 1-5 1-1 0-2 0-3-1-3 0-73-19-136-22-63 3-133 22-136 22-1 1-3 1-4 1-1 0-2 0-4-1-1 0-106-36-186-44z m127-1c31 9 55 17 64 20 14-4 79-19 138-22h2c59 3 123 18 138 22 9-3 33-11 64-20-100-1-199-10-203-10-4 0-103 9-203 10z m-286-3c36-66 175-280 474-280 5 0 10 0 15 0 5 0 10 0 15 0 302 0 438 214 472 279 1 1 1 2 1 3 1 2 1 4 1 5-1 2-1 4-3 6 0 0-1 1-2 2-45 39-202 146-248 173-29 18-61 26-96 26-43 0-90-13-140-39-51 26-98 39-140 39-35 0-67-8-96-26-43-25-196-128-250-172-1-1-2-1-2-2-1-2-2-4-3-5 0-2 0-4 1-6 0-1 0-2 1-3z m489 148c2 0 4 0 6 1 50 27 94 40 134 40 30 0 58-8 83-23 40-24 184-121 237-164-44-79-174-256-445-256-5 0-10 0-15 0h0 0c-5 0-10 0-15 0-268 0-401 178-447 257 62 48 201 141 239 163 25 15 53 23 83 23 40 0 84-13 134-40 2-1 4-1 6-1z m-277 127c2 0 4 1 6 2 9 5 17 9 26 13 4 1 8 3 12 4 7 2 11 10 8 16-1 6-6 9-12 9-1 0-2 0-4 0-4-2-9-4-14-5-10-4-19-9-29-15-3-2-5-5-6-8-1-3 0-7 2-10 2-3 6-6 11-6z m168 17c13-5 26-11 39-18 2-1 4-1 6-1 5 0 9 2 11 6 2 3 2 7 1 10-1 3-3 6-6 8-14 7-28 14-43 19-1 0-2 0-4 0-5 0-10-3-12-8-1-4-1-7 1-10 1-3 4-5 7-6z m-84 10c0 0 1 0 1 0 5 1 11 1 16 1 9 0 17 0 26-2 0 0 1 0 2 0 6 0 11 5 12 11 1 7-4 14-11 15-9 1-19 2-29 2-6 0-12-1-18-1-4 0-7-2-9-5-2-2-3-5-3-9 1-6 6-12 13-12z m408-5c13-5 25-11 38-18 2-1 4-1 6-1 5 0 9 2 11 6 2 3 3 6 2 10-1 3-3 6-6 7-14 8-29 15-43 20-1 0-3 1-4 1-6 0-11-4-12-9-1-3-1-7 0-10 2-3 4-5 8-6z m-249-46c7-6 12-10 12-10 2-2 5-3 9-3 2 0 5 0 7 2 1 0 1 1 2 1 0 1 8 8 20 17 5 4 6 12 2 18-2 3-6 5-10 5-3 0-6-1-8-2-6-5-10-8-14-11-1 1-3 2-5 3-2 2-5 3-7 3-4 0-8-2-11-5-4-6-3-14 3-18z m80 29c2 0 4 0 6 1 13 7 26 13 39 17 7 2 10 9 8 16-2 5-6 9-12 9-1 0-3 0-4-1-14-5-29-11-43-18-3-2-5-4-6-8-1-3-1-6 1-9 2-5 6-7 11-7z m85 26c0 0 0 0 1 0 6 1 13 2 20 2 7 0 14-1 22-2 0 0 1 0 1 0 7 0 12 5 13 12 1 7-4 13-11 14-9 1-17 1-25 1-8 0-15 0-23-1-7-1-12-7-11-14 1-7 6-12 13-12z m-540-158c2-1 5-2 8-2 4 0 8 2 10 6 9 12 17 24 26 35 4 6 3 14-2 18-3 2-5 3-8 3-4 0-8-2-10-5-9-11-18-24-27-37-4-6-2-14 3-18z m63 69c3 0 7 1 9 4 10 11 21 21 31 30 5 5 6 13 1 18-2 3-6 5-9 5-3 0-6-1-9-3-11-10-22-21-33-33-4-5-4-13 1-18 2-2 5-3 9-3z m729-49c2-3 6-5 10-5 3 0 6 1 8 3 3 2 4 5 5 9 0 3-1 7-3 9-10 12-20 23-31 34-2 3-5 4-9 4-3 0-6-1-9-3-2-3-4-6-4-9 0-4 2-7 4-9 10-11 20-22 29-33z m-95 90c12-8 23-18 34-27 2-2 5-3 9-3 3 0 7 1 9 4 2 2 4 6 3 9 0 4-1 7-4 9-11 10-23 20-36 29-2 1-4 2-7 2-4 0-8-2-10-5-3-3-3-6-3-9 1-4 3-7 5-9z m145-162c2-4 7-6 11-6 2 0 5 1 7 2 6 3 8 11 4 17-7 13-16 26-25 39-2 3-6 5-10 5-3 0-5 0-7-2-3-2-5-5-6-8 0-4 1-7 2-10 9-12 17-24 24-37z m-889-26c2-1 4-2 7-2 4 0 9 3 11 7 7 13 14 26 22 38 3 6 1 14-5 18-2 1-4 2-6 2-5 0-9-2-11-6-8-13-15-26-23-40-3-6-1-14 5-17z m950-30c-8 13-15 26-23 39-2 4-6 6-11 6-2 0-5 0-7-2-6-3-8-11-4-17 8-13 15-26 22-39 2-4 7-6 11-6 2 0 5 0 6 1 7 4 9 11 6 18z m-953-148c2 2 2 6 1 9-3 14-6 28-8 43-1 6-6 11-13 11 0 0-1 0-2 0-7-1-11-8-10-15 2-15 5-30 9-45 1-6 6-10 12-10 1 0 2 0 3 1 4 0 6 3 8 6z m34-71c-7 13-14 26-19 39-2 5-7 8-12 8-1 0-3 0-5-1-6-2-9-10-7-16 6-15 13-29 20-42 3-4 7-7 12-7 2 0 4 1 6 2 3 2 5 4 6 8 1 3 0 6-1 9z m635-168c-1 0-2 0-3 0-14-4-28-7-43-9-3-1-6-3-8-6-2-3-3-6-2-9 1-6 6-11 12-11 1 0 2 0 2 0 16 3 31 6 45 10 7 2 11 8 9 15-1 6-6 10-12 10z m84 29c-2 0-3 0-5-1-13-6-26-11-40-16-4-1-6-4-8-7-1-3-1-6 0-9 1-5 6-9 12-9 1 0 2 0 4 1 15 5 29 10 42 17 4 1 6 3 7 7 1 3 1 6 0 9-2 5-7 8-12 8z m142 111c-2 1-4 2-7 2-4 0-8-2-11-6-7-12-16-23-25-34-2-3-4-6-3-9 0-4 1-7 4-9 2-2 5-3 8-3 4 0 7 1 10 4 10 12 20 24 28 37 4 6 2 14-4 18z m-66-65c-3 0-6-1-8-2-11-9-22-18-35-25-6-4-8-12-4-18 2-4 6-6 11-6 2 0 4 1 6 2 14 8 27 17 38 27 3 2 5 5 5 8 0 4-1 7-3 10-2 3-6 4-10 4z m97 149c-1 0-2 0-3 0-6 0-11-4-12-10-4-14-9-27-14-40-1-3-1-7 0-10 1-3 4-6 7-7 1-1 3-1 5-1 5 0 9 3 11 8 6 14 11 29 15 44 2 7-2 14-9 16z m10 89c-7 0-13-6-13-13-1-16-2-30-4-43 0-4 0-7 3-10 2-2 5-4 8-5 1 0 1 0 2 0 6 0 12 5 12 11 2 14 4 29 5 46 0 4-1 7-4 9-2 3-5 4-9 5z m-620-324c-15 3-29 6-43 9-1 1-2 1-3 1-6 0-11-4-12-10-1-3-1-7 1-10 2-3 5-5 8-5 14-4 29-7 44-10 1 0 2 0 3 0 6 0 11 4 12 10 1 4 0 7-2 10-2 3-5 4-8 5z m-85 22c-13 5-27 10-40 16-2 1-3 1-5 1-5 0-10-3-12-7-1-3-1-7 0-10 1-3 3-6 7-7 13-7 27-12 42-17 1-1 3-1 4-1 6 0 11 3 12 9 1 3 1 6 0 9-2 3-4 6-8 7z m-78 36c-13 7-25 16-36 24-2 2-5 3-8 3-4 0-7-2-10-5-4-6-3-14 3-18 11-9 24-18 38-26 2-1 4-2 6-2 5 0 9 3 11 6 2 3 3 7 2 10-1 3-3 6-6 8z m-96 85c-2 3-6 5-10 5-3 0-6-1-8-2-6-4-7-12-2-18 9-12 19-24 30-35 2-3 6-4 9-4 3 0 7 1 9 4 2 2 4 5 4 9 0 3-2 6-4 9-10 10-19 21-28 32z m524-148c0 0-1 0-2 0-14-2-28-3-43-4-4 0-7-2-9-4-2-3-3-6-3-10 0-6 6-12 13-12 0 0 0 0 0 0 16 2 31 3 46 5 3 0 6 2 8 4 2 3 3 7 3 10-1 6-7 11-13 11z m-90-6c0 0 0 0 0 0-11 0-22-1-33-1-3 0-7 0-11 0-7 0-13-5-13-12 0-7 6-13 13-13 3 0 7 0 11 0 11 0 23 0 34 0 4 0 7 2 9 4 2 3 4 6 4 9-1 7-6 13-14 13z m-88 1c-15 1-29 2-44 4 0 0-1 0-1 0-7 0-12-5-13-12 0-3 1-6 3-9 2-3 5-4 8-5 15-1 30-3 46-4l0 0c7 0 13 6 13 12 0 4-1 7-3 10-2 2-5 4-9 4z" horiz-adv-x="1000" />

<glyph glyph-name="01" unicode="&#xe826;" d="M695 301c-26 0-47-21-47-47 0-26 21-48 47-48 27 0 48 22 48 48 0 26-21 47-48 47z m0-72c-13 0-24 11-24 25 0 13 11 24 24 24 14 0 25-11 25-24 0-14-11-25-25-25z m-391 72c-26 0-48-21-48-47 0-26 22-48 48-48 26 0 47 22 47 48 0 26-21 47-47 47z m0-72c-14 0-24 11-24 25 0 13 10 24 24 24 13 0 24-11 24-24 0-14-11-25-24-25z m668 21c-5 28-4 58-4 89 1 58 1 117-28 174-30 59-102 73-165 85-35 7-69 14-93 27-46 25-59 91-64 129-2 19-19 34-39 34h-161c-20 0-37-15-39-34-4-38-18-104-64-129-24-13-58-20-93-27-63-12-135-26-165-85-29-57-29-116-28-174 0-31 1-61-4-89-9-60-19-185-24-254-2-27 15-51 41-59 23-8 47-12 70-13 1 0 3 0 4 0 29 0 53 20 57 49 7 52 17 122 26 175 3-15 6-28 9-38 2-9 15-58 22-79 6-20 12-40 18-60 9-27 32-47 61-49 44-4 112-9 186-9l0 0h7l1 0c74 0 142 5 186 9 28 2 52 22 60 49 6 20 12 40 19 60 5 16 11 37 17 62 4 15 9 37 14 56 12-70 29-172 34-203 3-16 16-28 33-28 2 0 4 0 6 0 0 0 0 0 0 0 50 0 89 16 107 26 12 6 19 18 18 32-3 47-14 205-25 274z m-4-286c-16-9-51-23-95-23-2 0-5 0-7 0-5 0-9 4-10 9-10 60-34 204-44 256 3 13 12 56 0 108 0 5-4 56 2 91 1 3 0 6-2 9s-4 4-7 5c-1 0-2 0-2 0-6 0-11-4-12-10-6-40-2-95-2-98 0 0 0-1 0-1 12-54 1-99 0-100-15-50-49-76-106-78-3 0-6 0-9 0 0 0 0 0 0 0-111 0-129 91-131 109-1 6-6 10-12 10 0 0-1 0-1 0-3 0-6-2-8-4-2-3-3-6-2-9 3-21 23-129 154-129 3 0 6 0 10 0 37 1 66 12 89 31-3-10-5-19-7-27-1 0-2-1-3-1-6-3-12-6-17-8-6-3-9-9-7-15 2-5 6-8 11-8 1 0 3 1 4 1 2 1 3 1 5 2-5-18-10-33-14-46-6-20-13-40-18-60-6-19-22-32-41-33-43-4-111-9-185-9l-5 0-1 0c-73 0-141 5-184 9-19 1-35 14-41 33-5 20-12 40-18 60-4 12-10 33-14 48 3-1 6-2 8-3 2-1 3-1 5-1 5 0 9 3 11 7 2 6-1 13-7 15-5 2-11 5-17 8-2 1-3 1-5 1-1 0-2 0-2 0l-1 3c-2 7-4 15-6 23 24-20 55-30 89-30l1 0c136 0 160 99 163 129 1 3 0 6-2 9-2 2-5 4-8 4 0 0-1 0-1 0-6 0-11-4-12-10-4-33-26-109-140-109l0-3 0 0-1 3c-53 0-94 30-105 77 0 1-12 46 0 100 0 1 0 2 0 2 0 3 5 65-2 104-1 6-6 10-12 10 0 0-1 0-1 0-4 0-6-2-8-5-2-2-3-5-2-8 6-35 2-92 2-98-11-52-3-95 0-108-9-47-26-164-35-230-3-17-17-29-35-29 0 0-1 0-2 0-21 1-43 5-64 12-16 4-25 19-24 35 3 55 13 191 23 252 5 30 5 61 4 94 0 54-1 111 26 162 25 49 88 61 148 73 38 7 73 14 101 29 54 31 70 105 75 147 1 8 8 14 16 14h162c8 0 15-6 15-14 5-42 21-116 76-147 27-15 63-22 100-29 61-12 124-24 149-73 26-51 26-108 25-162 0-33-1-63 4-94 11-67 22-225 25-272 0-4-2-8-6-10z m-298 103c3 0 6 0 9 0 12 0 23 1 34 3 3 1 6 2 8 5 1 2 2 6 2 9-1 5-6 9-12 9-1 0-1 0-2 0-10-2-20-3-30-3-2 0-5 0-8 0 0 0 0 0-1 0-6 0-11-4-11-11 0-3 1-6 3-8 2-3 5-4 8-4z m-82 25c12-7 26-13 39-17 1-1 3-1 4-1 5 0 9 3 11 8 2 6-2 13-8 15-12 4-23 9-34 16-2 1-4 1-6 1-4 0-8-2-10-6-4-5-2-12 4-16z m-35 26c2-2 5-3 8-3 3 0 6 1 8 4 5 5 4 12 0 16-17 15-26 28-26 28-2 3-6 5-10 5-2 0-4-1-6-2-6-4-7-11-3-16 0-1 10-15 29-32z m-222-27c-1 0-1 0-1 0-3-1-6-1-8-1-10 0-20 1-30 3-1 0-2 0-2 0-6 0-11-4-12-9 0-3 0-6 2-9 2-3 5-4 8-5 11-2 22-3 34-3 3 0 6 0 9 0 3 0 6 2 8 4 2 2 3 5 3 8 0 7-5 12-11 12z m76 23c-2 0-4 0-6-1-11-7-22-12-34-16-6-2-10-8-8-14 2-5 6-8 11-8 1 0 3 0 4 0 13 4 27 10 39 18 6 3 8 10 4 16-2 3-6 5-10 5z m67 52c-2 2-4 3-6 3-4 0-8-2-10-5 0-1-9-14-26-28-4-5-5-12 0-17 2-2 5-4 8-4 3 0 6 1 8 3 19 17 29 32 29 32 4 6 3 13-3 16z m-208 187c12 6 23 11 35 14 3 1 5 3 7 5 1 3 2 6 1 9-1 5-6 9-11 9-1 0-2 0-3 0-14-4-27-9-40-17-6-3-8-11-5-16 3-4 6-6 10-6 3 0 5 1 6 2z m116 30c-14 5-28 9-43 10 0 0 0 0-1 0-6 0-11-5-11-10-1-4 0-7 2-9 2-2 5-4 8-4 12-1 24-4 36-9 2 0 3-1 5-1 4 0 9 3 11 8 2 5-1 12-7 15z m38-21c-2 1-4 2-7 2-3 0-7-2-9-5-2-3-3-6-2-9 0-3 2-5 5-7 17-12 28-25 28-25 3-3 6-4 9-4 3 0 6 1 8 3 5 4 5 11 1 16-1 2-13 15-33 29z m165 2c-2 0-5-1-7-2-20-14-32-28-32-29-5-5-4-12 1-16 2-2 5-3 7-3 4 0 7 1 9 4 0 0 11 12 29 25 2 1 4 4 5 7 0 3-1 6-2 9-3 3-6 5-10 5z m84 10c2 2 3 5 3 9-1 6-6 10-12 10 0 0 0 0-1 0-14-1-28-5-43-10-5-3-8-10-6-16 2-4 6-7 11-7 1 0 3 0 4 1 12 5 24 8 36 9 3 0 6 2 8 4z m75-1c-13 8-27 13-41 17-1 0-2 0-2 0-6 0-10-4-12-9 0-3 0-6 2-9 1-2 4-4 7-5 11-3 23-8 34-14 2-1 4-2 6-2 4 0 8 2 10 6 2 3 2 6 1 9 0 3-2 5-5 7z" horiz-adv-x="1000" />

<glyph glyph-name="02" unicode="&#xe827;" d="M437 381c2-1 5-2 7-2 4 0 7 2 9 5 4 5 3 12-2 16-33 25-49 52-39 68 3 5 1 12-4 16-2 1-4 1-6 1-5 0-8-2-10-5-17-28 1-65 45-99z m28 20c1 0 1 1 2 1 4 0 9 1 14 1 8 0 14-1 18-2 1 0 1 0 2 0 5 0 9 4 9 9 1 4-1 7-3 10-4 4-11 6-22 6-15 0-24-4-28-11-2-2-2-6 0-9 2-3 5-5 8-5z m-14-183c2 0 5 0 5 0 82 0 112 62 115 69 1 1 1 2 1 2 0 1 0 2 0 3 0 2 0 4-1 6-1 1-1 2-2 3-1 0-1 0-2 1-7 5-46 32-57 38-8 5-17 8-26 8-10 0-21-3-32-8-11 5-22 8-32 8-9 0-18-3-26-8-12-7-56-37-58-38 0-1-1-1-1-1-1-1-2-2-2-3-1-2-2-4-2-6 0-1 0-2 1-2 0-1 0-2 0-3 3-7 33-69 116-69 1 0 2 0 3 0z m32 89c-1 0-2 0-3 0 0 0-15-4-28-5-14 1-29 5-29 5-1 0-2 0-3 0l0 0c0 0-18 0-37-1 11 7 19 12 23 14 4 3 9 4 14 4 8 0 16-2 26-8 2-1 4-1 6-1 2 0 3 1 5 1 10 6 19 8 26 8 6 0 10-1 15-4 4-2 11-7 22-14-19 1-36 1-37 1z m-64-23c4-1 19-5 32-5h1c14 0 28 4 33 5 5 0 34-1 56-2-13-17-40-41-86-41-1 0-4 0-4 0s-3 0-3 0c-47 0-73 24-86 41 22 1 52 2 57 2z m97 396c2 0 3 0 5 1 30 13 75 25 135 35 2 1 4 1 6 1 3 0 6-1 9-2 54-16 66-57 67-58 1-5 6-9 11-9 1 0 2 0 3 1 3 0 5 2 7 5 1 3 2 6 1 9-1 2-16 54-82 75-5 1-11 2-16 2-3 0-7 0-10-1-62-10-109-22-141-37-6-2-8-9-6-15 2-4 6-7 11-7z m-301 35c3 1 6 2 9 2 2 0 4-1 6-1 60-10 106-22 136-35 1-1 3-1 4-1 5 0 9 2 11 7 3 5 0 12-6 15-32 14-79 27-141 37-3 1-6 1-10 1-5 0-11-1-16-3-66-20-81-72-82-74 0-3 0-6 1-9 2-3 4-5 7-6 1 0 3 0 4 0 5 0 9 3 11 8 0 1 12 42 66 59z m403-387c-1 0-2 0-4 0-6-3-10-4-10-4-3-1-5-3-7-6-1-3-2-6-1-9 2-5 6-8 11-8 2 0 3 0 4 1 0 0 4 1 12 4 5 2 8 9 6 15-2 5-6 7-11 7z m42 20c-2 0-4 0-5-1-4-2-7-4-10-5-6-3-8-10-5-16 2-4 6-6 10-6 2 0 4 0 5 1 4 2 7 3 11 5 6 4 8 11 5 16-3 4-6 6-11 6z m-413 14c-3 2-6 4-10 5-1 1-3 2-5 2-4 0-8-3-10-6-3-6-1-13 4-16 4-2 7-4 11-6 1 0 3-1 5-1 4 0 8 3 10 7 2 2 2 5 1 8-1 3-3 6-6 7z m-38 23c-3 2-6 4-9 7-2 1-4 2-7 2-4 0-7-2-9-4-4-5-3-13 2-17 3-2 6-4 10-7 2-1 4-2 6-2 4 0 8 2 10 5 3 5 2 12-3 16z m79-40c0 0-4 1-10 3-1 1-3 1-4 1-5 0-9-3-11-7-2-6 1-13 7-15 7-3 11-4 11-4 1-1 3-1 4-1 5 0 9 3 11 8 2 6-2 13-8 15z m156 253c6 0 11 5 11 12v11c0 7-5 12-11 12-7 0-12-5-12-12v-11c0-7 5-12 12-12z m0 46c6 0 11 6 11 12v12c0 6-5 11-11 11-7 0-12-5-12-11v-12c0-6 5-12 12-12z m0-139c6 0 11 6 11 12v12c0 6-5 11-11 11-7 0-12-5-12-11v-12c0-6 5-12 12-12z m0 47c6 0 11 5 11 11v12c0 6-5 11-11 11-7 0-12-5-12-11v-12c0-6 5-11 12-11z m101 11c-1 5-6 7-10 7-2 0-3 0-5 0-6-3-8-10-6-16 0 0 2-5 6-11 2-4 6-6 10-6 2 0 4 1 6 2 5 3 7 10 4 15-3 5-4 9-5 9z m24-34c-2 2-5 4-8 4-3 0-6-2-8-4-2-2-3-5-3-8 0-3 1-6 3-8 3-3 6-6 9-9 3-1 5-2 8-2 3 0 7 1 9 4 4 5 3 12-2 16-3 2-5 5-8 7z m41-49c6 0 10 4 12 9 1 6-2 12-8 14-4 1-7 2-10 3-2 1-3 1-5 1-4 0-9-3-10-7-3-6 0-13 6-15 4-2 8-3 12-4 1-1 2-1 3-1z m91 33c-2 0-4-1-6-1-3-2-6-3-9-5-3-1-6-3-7-6-1-3-1-6 0-9 2-4 6-7 11-7 1 0 3 0 4 1 4 1 8 3 12 5 2 1 4 4 5 7 1 3 1 6 0 8-2 4-6 7-10 7z m-56-37l0 0c4 0 8 0 13 1 3 0 5 1 7 4 2 2 3 5 3 8-1 6-6 11-12 11 0 0 0 0-1 0-3-1-7-1-10-1-7 0-12-6-12-12 0-6 6-11 12-11h0z m94 63c-3 0-6-1-8-3-3-2-5-5-8-7-5-4-6-11-2-16 2-3 5-5 9-5 2 0 5 1 7 3 3 2 7 5 9 8 5 4 6 11 1 16-2 2-5 4-8 4z m-435-32c-1 0-3 0-4-1-3-1-7-2-10-3-6-2-10-8-8-14 2-5 6-9 11-9 1 0 2 0 3 1 5 1 9 2 13 4 2 1 5 3 6 6 1 3 1 6 0 9-2 4-6 7-11 7z m-79-15c2 6-1 13-7 15-3 2-6 3-10 5-1 1-3 1-5 1-4 0-8-3-10-7-3-5-1-12 5-15 4-2 8-4 12-5 1-1 2-1 4-1 5 0 9 3 11 7z m-40 29c0 3-1 6-4 8-3 2-6 5-8 7-2 2-5 3-8 3-3 0-6-1-9-4-2-2-3-5-3-8 1-3 2-6 4-8 3-3 6-6 10-8 2-2 4-3 7-3 4 0 7 2 9 5 2 2 3 5 2 8z m86-34c0 3-1 6-4 8-2 3-5 4-8 4-3 0-7 0-10 1-1 0-1 0-2 0-5 0-10-5-11-11-1-6 4-12 10-12 4-1 9-1 13-1h0c6 0 12 5 12 11z m70 17c4 3 7 6 10 9 4 4 4 12 0 16-2 2-5 4-8 4-3 0-6-2-8-4-3-2-6-5-8-7-5-4-6-11-2-16 2-3 6-4 9-4 3 0 5 1 7 2z m17 34c2-1 4-1 6-1 4 0 8 2 10 6 4 6 6 11 6 11 2 6-1 13-6 16-2 0-3 0-5 0-5 0-9-2-11-7 0 0-1-4-4-9-2-2-2-6-1-9 0-2 2-5 5-7z m622-428c0 0-1 0-1 1l0 0-291 166c21 31 40 64 56 99 0 1 0 1 0 1 2 5 4 9 6 15 64 24 132 98 147 145 13 43 11 81-6 104-16 20-32 31-50 31-1 0-1 0-2 0-6-1-16-4-25-7 2 13 4 26 5 39 2 17 4 48 4 49 1 6-4 12-10 12l-1 0c-6 0-11-5-12-11 0 0-1-15-2-29-49 28-176 88-367 88-187 0-286-58-324-86-1 11-2 21-2 22-1 6-6 10-12 10 0 0-1 0-1 0-3 0-6-1-8-4-2-2-3-5-2-8 0-1 3-33 4-45 2-11 3-24 5-36-7 3-15 5-19 6-1 0-2 0-2 0-18 0-35-11-50-31-18-24-21-65-6-110 14-45 67-107 129-131 15-52 49-128 121-198 5-46 3-140-36-199-31-48-82-79-150-92-6-1-10-7-9-13 1-6 6-10 11-10 1 0 2 0 2 0 75 14 131 49 166 102 39 60 43 142 41 190 26-22 54-42 85-59 21-11 51-18 79-18l1 0c26 1 51 8 73 21 17 10 50 32 88 68-2-38 0-136 44-203 35-53 90-87 163-101 1 0 1 0 2 0 6 0 10 4 12 9 1 7-3 13-10 14-66 13-116 43-147 91-43 65-45 166-39 216 2 3 5 5 7 8l299-172c0 0 1 0 1 0 0 0 1 0 1-1 3 0 8-2 14-2 13 0 23 6 28 16 11 18-2 36-10 43z m-595 32c-131 72-189 174-215 249 0 0 0 0 0 0 3 0 6 1 8 3 4 5 5 12 0 17-2 2-5 5-7 8-2 2-5 4-9 4-1 0-1 0-2 0-6 25-8 40-8 40 0 1 0 3 0 4-6 24-12 49-17 75 2-1 4-1 6-1 3 0 5 1 7 2 3 2 4 5 4 8 1 3 0 6-2 9-3 3-5 6-7 8-2 3-5 5-9 5-2 0-3 0-4-1-10 53-16 98-20 127 26 23 119 91 321 91 195 0 319-62 364-91-5-43-11-86-19-127-2 1-4 1-6 1-4 0-7-2-10-5-1-2-3-5-6-8-4-5-3-13 1-17 3-1 5-2 8-2 2 0 5 1 7 2-5-24-11-48-17-70-5-19-15-47-21-63-3 0-5-2-6-4-3-2-5-5-8-8-4-4-4-12 1-16 0-1 1-1 1-1-3-7-6-14-9-20 0 3-1 6-3 8-2 3-5 4-9 4-2 0-5 0-7-2-3-2-6-5-9-7-5-3-6-11-3-16 2-3 6-5 10-5 2 0 4 1 6 2 4 3 7 5 10 8 0 0 0 0 1 0-12-23-26-45-41-66l-38 8-21 5c-1 0-2 0-2 0-4 0-8-2-10-5-3-5-3-10 0-14l15-18 19-22c-3-4-6-7-8-10l-1-1c-46-48-89-77-105-86-19-11-40-18-62-19-29 1-54 9-68 17z m456 506c10 0 21-7 31-21 13-17 14-47 2-83-11-35-59-92-113-121 7 18 12 33 15 44 14 53 25 111 34 171 1 0 1 0 1 0 3 3 23 10 29 10l1 0z m-179-384c1 0 2 0 3-1l292-166-10-17-295 170-17 20 27-6z m-626 274c-12 38-11 71 2 89 11 14 21 21 32 21l0 0c3 0 16-5 25-9 9-63 21-123 34-178 0-1 2-13 6-32-49 25-88 74-99 109z m410-369c-6 0-11-5-11-11v-12c0-6 5-12 11-12s12 6 12 12v12c0 6-5 11-12 11z m0 47c-6 0-11-6-11-12v-12c0-6 5-11 11-11s12 5 12 11v12c0 6-5 12-12 12z m274 372c-1 1-3 3-5 6 22 4 29 18 30 19 3 6 0 13-6 16-1 0-3 1-5 1-4 0-8-3-10-7 0 0-2-3-8-5-1 1-2 1-3 2 0 0 0 0 0 0-1 0-1 1-2 1 0 1 1 1 1 1 0 1 0 1 1 2 0 0 0 0 1 1 7 11 6 19 6 21-1 6-6 11-12 11 0 0 0 0-1-1-3 0-5-1-7-4-2-2-3-5-3-8 0 0 0-2-3-6 0-1 0-1 0-1 0 0 0 0-1-1 0-1-1-2-2-2-4 2-8 4-12 5 0 0 0 1 1 1 0 1 0 1 0 2 0 0 0 1 0 1 2 9 1 17 0 18 0 6-5 10-11 10-1 0-1 0-2 0-6-1-10-7-9-13 0-1 0-5-1-10 0-2-1-3-1-3l-9 1c0 1 0 2 0 3l0 1v3c0 6 0 9 0 10 0 6-5 11-11 11-1 0-1 0-1 0-6-1-11-7-11-13 0-1 0-4 0-7v-3c0-1 0-2 0-3-27 0-43-9-52-14l-1 0c-5-3-17-9-21-11-1 0-2-1-3-1-4-2-7-4-9-6-9-9-9-17-7-21 4-13 16-16 25-18l1 0c5-1 8-3 8-3 20-18 43-24 55-25 0-1 0-2 0-2-1-7 3-12 10-13 0 0 1 0 1 0 6 0 11 4 12 10 0 1 0 2 0 5 4 0 8 1 10 1l1 0c2 0 5 1 8 2 1-6 6-10 11-10 1 0 2 0 2 1 7 1 11 6 10 13 0 1-1 3-1 6 4 2 8 5 9 6l0 0c2 2 5 5 7 8 0-1 0-1 1-1 2-3 5-5 9-5 3 0 5 1 7 2 5 4 6 11 3 16z m-138 25l1 1c1 0 3 1 5 2-1-3-1-6-1-9 0-10 3-19 8-26-5 3-10 6-14 10-4 4-12 7-18 8l-2 1c-1 0-3 0-4 1 0 0 1 0 1 0 5 2 15 7 24 12z m41-21c11 0 20 9 20 20 0 4-2 9-5 12 1 0 10-2 10-2 2-1 4-3 4-5 1-1 1-1 1-1 1-3 2-6 2-9 0-12-10-22-23-22-7 0-14 4-18 9 3-1 6-2 9-2z m54 22c4-1 7-3 9-5 0 0 1 0 1 0 1-1 3-2 6-4-1-2-2-4-3-6-4-4-9-10-12-13-3-2-7-5-10-7 7 8 10 18 10 28 0 2 0 5-1 7z m-332-40l1 1c9 2 21 5 25 17 2 4 3 13-6 21-3 3-6 5-10 6-1 1-2 1-3 1-4 2-16 8-21 11l-1 1c-9 4-25 13-52 14 0 0 0 1 0 2l0 4c0 2 0 5 0 6 0 7-4 12-11 13 0 0 0 0-1 0-6 0-11-5-11-11 0-1 0-4 0-9v-4l0 0c0-1 0-2 0-3l-9-2c-1 1-1 2-2 3 0 6 0 11 0 11 1 6-3 12-9 13-1 0-2 0-2 0-6 0-11-4-12-9 0-2-1-10 1-19l0-1 0 0c0-2 1-3 1-4 0-1-1-1-1-1-2-1-6-2-10-5-1 1-2 3-3 4 0 0-1 0-1 0 0 1 0 1 0 1-3 4-3 6-3 6v0c1 7-4 12-10 13-1 0-1 0-1 0-6 0-11-5-12-11 0-1-1-10 6-21 1 0 1-1 1-1 1 0 1-1 1-1 0-1 1-1 1-1 0 0-1-1-1-1-1 0-1 0-2-1 0 0 0-1-1-1l-1-1c-6 3-8 6-8 6-2 4-6 6-10 6-2 0-4 0-5-1-6-2-9-9-6-15 1-2 7-15 30-20-2-2-4-4-5-5-1-3-2-6-1-9 0-3 2-5 4-7 2-2 5-2 7-2 4 0 7 1 9 5 1 0 1 0 1 0 2-3 5-5 7-7l0-1c1 0 5-3 9-6 0-2-1-5-1-5-1-7 3-13 10-14 0 0 1 0 2 0 5 0 10 4 11 10 3-1 6-2 8-2l1 0c2-1 6-1 10-1 0-3 0-5 0-6 1-5 6-10 12-10 0 0 1 0 1 0 7 1 11 7 10 13 0 1 0 2 0 3 12 1 35 6 54 25 1 0 4 1 9 2z m-111 3c-3 2-7 4-10 6-3 3-8 9-11 14-1 2-3 4-4 6 3 1 5 3 6 3 0 0 7 4 9 5 0-2 0-5 0-7 0-10 4-19 10-27z m25 32c0-11 9-19 20-19 3 0 6 0 9 2-4-6-11-9-18-9-13 0-23 9-23 21 0 3 1 6 2 9 0 0 1 1 1 1 1 3 3 5 4 6 0 0 9 2 10 2-3-4-5-8-5-13z m48-31c5 8 8 17 8 26 0 4 0 7-1 10 2-1 4-2 5-3l1 0c9-5 19-10 24-12 1 0 1 0 1-1-1 0-3 0-4-1l-2 0c-5-1-13-4-18-8-4-4-9-8-14-11z" horiz-adv-x="1000" />

<glyph glyph-name="bicycle" unicode="&#xe828;" d="M973 31c-10 4-21 0-26-10-27-66-91-108-161-108-85 0-156 61-172 141 0 1 0 1 0 1 0 9-1 17-3 25-1 3-1 6-1 9 0 73 46 136 110 162l47-168c2-8 10-14 19-14 1 0 3 0 5 1 10 3 16 14 13 24l-47 168c10 1 19 2 29 2 69 0 133-41 160-105 5-10 16-15 26-10 10 4 15 15 10 25-34 78-111 129-196 129-14 0-27-1-39-4l-2 6c-6 20-10 41-13 61 0 1 0 1 0 1-1 11-2 23-3 35 2-8 10-15 19-15h27c37 0 67 30 67 67s-30 67-67 67h-59l-150 133c8-3 16-4 25-4 48 0 88 39 88 88s-40 88-88 88-88-40-88-88c0-17 5-32 13-45-14 6-30 9-46 9-29 0-56-11-77-31l-159-160c-1 0-1 0-1 0 0-1-1-2-1-2 0 0 0 0 0 0 0 0 0 0 0 0-10-14-16-30-17-48h-39c-11 0-19-8-19-19v-24c0-41 33-74 73-74h24l-10-43c-10 1-20 2-30 2-118 0-214-96-214-214 0-73 36-137 91-176h-71c-11 0-20-8-20-19 0-11 9-20 20-20h194c106 0 195 78 212 179 1-10 9-17 19-17h133c13-51 43-94 84-123h-124c-10 0-19-8-19-19 0-11 9-20 19-20h248c86 0 164 52 197 132 5 10 0 21-10 25z m-245 451h47c15 0 28-13 28-28 0-16-13-28-28-28h-27c-10 0-18-8-19-18-1 6-1 12-1 18v56z m-37-99h-196c-3 4-6 8-9 11l-62 62 81 81 185-134c0-7 1-13 1-20z m-29-39l-119-108-12 71c0 0 0 0 0 0-2 13-6 25-11 37h142z m-71 443c27 0 49-22 49-49 0-27-22-49-49-49-27 0-49 22-49 49 0 27 22 49 49 49z m-170-144c13 13 31 20 49 20s37-7 50-20l169-151v-40l-175 126c-3 3-7 4-11 4-5 0-10-2-14-6l-98-98-66 18-40 11 136 136z m-191-260c-19 0-34 16-34 35v4h23c4-14 12-27 21-39h-10z m-16-470c-96 0-175 79-175 176s79 175 175 175c7 0 14 0 21-1l-40-170c-1-6 0-12 4-16 4-5 9-8 15-8h175c-10-87-85-156-175-156z m25 195l34 146c62-22 108-78 116-146h-150z m43 184l12 52 93-54 31-134c-21 64-72 115-136 136z m141 15c-1 5-4 10-9 13l-126 73c-16 9-29 27-33 47-3 13-2 24 2 34l57-16 72-20 72-71c18-19 30-41 35-67l23-147c0 0 0 0 0 0h-57v0l-36 154z m42-232v39h51c26 0 47-17 55-39h-106z m111 57c-6 5-12 9-19 12l-7 46 150 136c2-11 5-21 7-31l2-6c-67-26-118-85-133-157z m405-24c-11 0-20-9-20-19l0-1c0-11 9-20 19-20 0 0 0 0 1 0 10 0 19 9 19 20l0 1c0 10-9 19-19 19z m-506-200c-3 3-8 5-13 5-6 0-11-2-14-5-4-4-6-9-6-14 0-5 2-10 6-14 3-4 8-6 14-6s10 2 13 6c4 4 6 9 6 14 0 5-2 10-6 14z" horiz-adv-x="1000" />

<glyph glyph-name="cardiogram-1" unicode="&#xe829;" d="M1000 503c0 3 0 7 0 10 0 149-121 270-269 270-96 0-183-50-231-131-48 81-135 131-231 131-148 0-269-121-269-270 0-3 0-7 0-10 0-64-1-142 101-262 104-123 344-324 399-324 55 0 295 201 399 324 102 120 101 198 101 262z m-130-237c-118-139-335-306-370-310-35 4-252 171-370 310-92 109-92 177-91 236 0 4 0 8 0 11 0 128 103 231 230 231 94 0 177-55 213-142 3-7 10-11 18-11 8 0 15 4 18 11 36 87 119 142 213 142 127 0 231-103 231-231 0-3 0-7 0-11 0-59 0-127-92-236z m-43 114h-257l-34 66c-3 6-10 10-18 10-8 0-14-6-17-13l-54-149-63 281c-2 9-9 15-18 15-8 1-16-4-19-12l-72-218h-102c-11 0-19-8-19-19s8-19 19-19h115c9 0 16 5 19 13l55 164 62-278c1-8 9-15 17-15 0 0 1 0 1 0 8 0 16 5 18 13l62 169 18-37c4-6 10-10 18-10h269c10 0 19 9 19 19s-9 20-19 20z" horiz-adv-x="1000" />

<glyph glyph-name="discount" unicode="&#xe82a;" d="M515 39c12 0 22-10 22-23s-10-22-22-22h-29c-12 0-22 10-22 22s10 23 22 23h29z m85 394c6 0 11 2 16 6 9 9 9 23 0 32-48 49-59 109-59 150 0 12-10 22-22 22 0 0 0 0 0 0-12 0-22-10-22-22 0-70 25-135 71-181 4-5 10-7 16-7z m-76-337h-47c-31 0-56 25-56 56 0 31 25 56 56 56h47c31 0 56-25 56-56s-25-56-56-56z m11 56c0 6-5 11-11 11h-47c-6 0-11-5-11-11s5-11 11-11h47c6 0 11 5 11 11z m-1 98h-67c-39 0-71 31-71 70s32 71 71 71h67c39 0 71-31 71-71 0-39-32-70-71-70z m26 70c0 15-12 27-26 27h-67c-14 0-26-12-26-27 0-14 12-26 26-26h67c14 0 26 12 26 26z m190 228c3 5 6 10 8 16 4 11-1 24-13 29-12 4-24-2-29-13-1-4-4-8-6-12-1-1-1-1-1-2-10-13-24-23-42-29-12-4-18-17-14-28 4-12 16-19 28-15 8 3 16 7 23 11-2-57-9-112-15-166-14-116-28-237 0-366 2-11 11-18 22-18 1 0 3 0 4 1 12 2 20 14 18 26-27 123-13 234 0 352 9 68 17 139 17 214z m34-510c-12 4-25-3-28-15s3-24 14-28c52-16 63-31 63-34 0-4-15-23-87-41-65-16-152-25-246-25-93 0-180 9-245 25-72 18-87 37-87 41 0 3 11 18 62 34 12 4 19 17 15 28-3 12-16 19-28 15-62-19-94-45-94-77 0-36 41-64 121-84 69-18 160-27 256-27 97 0 188 9 257 27 80 20 121 48 121 84 0 32-32 58-94 77z m-399 401c5-4 10-6 16-6 6 0 11 2 16 7 46 46 71 111 71 181 0 12-10 22-22 22 0 0 0 0 0 0-12 0-22-10-22-22 0-41-11-101-59-150-9-9-9-23 0-32z m462 278c-29 30-71 47-111 47h-63c-19 0-48 27-57 62l-1 7c-3 12-16 19-28 16-11-3-19-15-16-27l2-7c13-53 57-95 100-95h63c28 0 58-13 79-34 30-30 38-60 31-111l-67-466c-2-13 7-24 19-26 1 0 2 0 3 0 11 0 21 8 22 19l67 467c9 64-4 108-43 148z m-499-208c4 11-2 24-14 28-18 6-33 16-42 29 0 1-1 1-1 2-3 4-5 8-6 12-5 11-18 17-29 13s-18-18-13-29c2-6 5-11 8-16 0-75 8-146 16-214 14-118 27-229 1-352-2-12 5-24 18-26 1-1 3-1 4-1 11 0 20 7 22 18 28 129 14 250 0 366-6 54-13 109-15 166 7-4 15-8 23-11 12-4 24 3 28 15z m-149-426c1 0 2 0 3 0 13 2 21 13 19 26l-67 466c-7 51 1 81 31 111 21 21 51 34 79 34h63c43 0 87 42 100 95l2 7c3 12-4 24-16 27-12 3-25-4-28-16l-1-7c-9-35-37-62-57-62h-63c-40 0-82-17-111-47-39-40-52-84-43-148l67-467c2-11 11-19 22-19z" horiz-adv-x="1000" />

<glyph glyph-name="friendly" unicode="&#xe82b;" d="M314 110l-62 62c-59 60-92 139-92 223l0 68c0 5-2 10-6 14l-104 104c-7 7-20 7-27 0-8-8-8-20 0-28l98-98 0-60c0-46 9-92 27-135 18-44 44-83 77-116l61-61c4-4 9-6 14-6 5 0 10 2 14 6 7 7 7 20 0 27z m59-59c-4 4-9 6-14 6-5 0-10-2-14-6-3-3-5-8-5-13 0-6 2-11 5-14 4-4 9-6 14-6 5 0 10 2 14 6 4 3 6 8 6 14 0 5-2 10-6 13z m584 188l-193 193c40-24 93-13 119 26 14 19 19 43 15 67-4 24-18 45-38 58l-154 103c-58 39-126 60-197 60 0 0 0 0-1 0l-96 0-98 98c-8 8-20 8-28 0-7-7-7-20 0-27l104-104c4-4 9-6 14-6 0 0 0 0 0 0l105 0c0 0 0 0 0 0 63 0 123-18 176-53l153-103c12-8 19-20 22-33 2-13-1-27-9-38-15-22-44-28-67-14l-66 40c-13 8-30 5-39-7-9-12-8-28 2-39l249-249c19-19 19-50 0-69-18-18-46-19-66-3l-148 148c-7 8-20 8-27 0-8-8-8-20 0-28l144-144c2-2 3-3 5-5l41-41c19-19 19-50 0-69-9-9-21-14-34-14s-26 5-35 14l-41 41c-2 2-3 4-4 5l-145 144c-8 8-20 8-28 0-7-7-7-20 0-27l148-148c7-9 11-20 11-31 0-13-5-26-14-35-9-9-22-14-35-14s-25 5-34 14l-46 46c-2 2-3 3-4 5l-77 77c-1 1-2 1-3 2l-15 15c-7 8-20 8-27 0-8-8-8-20 0-28l97-97c7-9 11-20 11-31 0-13-5-26-14-35-19-19-50-19-69 0l-99 99c-8 8-20 8-28 0-7-7-7-20 0-27l99-99c17-17 40-26 62-26 23 0 45 9 63 26 12 12 20 28 24 44 16-15 37-24 60-24 24 0 46 9 63 26 12 12 20 28 24 45 16-14 36-20 55-20 23 0 46 8 63 25 32 33 34 84 5 119 17 3 33 11 45 24 35 34 35 90 0 124z m-555 208c-3 4-8 6-13 6-6 0-11-2-14-6-4-3-6-8-6-14 0-5 2-10 6-13 3-4 8-6 14-6 5 0 10 2 13 6 4 3 6 8 6 13 0 6-2 11-6 14z m105 0c-4 4-9 6-14 6-5 0-10-2-14-6-3-3-5-8-5-14 0-5 2-10 5-13 4-4 9-6 14-6s10 2 14 6c4 3 6 8 6 13 0 6-2 11-6 14z m-20-73c-7 8-20 8-27 0-5-5-12-8-19-8s-14 3-19 8c-8 8-20 8-28 0-7-7-7-20 0-27 13-13 29-20 47-20 17 0 34 7 46 20 8 7 8 20 0 27z m-46 206c-97 0-176-79-176-175s79-176 176-176 176 79 176 176-79 175-176 175z m0-312c-76 0-137 61-137 137 0 75 61 136 137 136 75 0 137-61 137-136 0-76-62-137-137-137z" horiz-adv-x="1000" />

<glyph glyph-name="waist" unicode="&#xe82c;" d="M656 682c-10 0-19-9-19-19s9-20 19-20c11 0 20 9 20 20s-9 19-20 19z m196-326c-22 79-119 204-107 423 0 5-1 10-5 14-4 4-9 6-14 6h-452c-5 0-10-2-14-6s-5-9-5-14c12-218-84-344-107-423-41-143 26-327 119-448 4-4 9-7 15-7h436c6 0 11 3 15 7 89 115 158 307 119 448z m-609 123c37 92 54 187 52 281h410c-2-94 15-189 52-281 2-4 3-8 5-12-81-38-171-58-262-58s-181 20-262 58c2 4 4 8 5 12z m238-539h-189c-101 134-131 287-111 385 105-41 206-128 300-200v-185z m-290 422c7 19 15 36 24 55 2 4 5 9 7 14 86-40 181-61 278-61 97 0 192 21 278 61 2-5 5-10 7-14 9-19 17-36 24-55-112-42-217-132-309-202-92 70-197 160-309 202z m517-422h-188v185c94 72 194 159 299 200 23-124-37-285-111-385z m-4 570c-9 26-16 53-21 79-3 10-13 17-23 15-11-2-18-13-15-23 5-28 13-55 22-83 3-10 14-16 25-12 10 3 15 14 12 24z m277 133h-121l44 45c8 7 8 20 0 27-7 8-20 8-27 0l-78-78c-8-7-8-20 0-27l78-78c7-8 20-8 27 0 8 7 8 20 0 27l-44 45h121c10 0 19 9 19 19s-9 20-19 20z m-780-6l-78 78c-7 8-20 8-27 0-8-7-8-20 0-27l44-45h-120c-11 0-20-9-20-20s9-19 20-19h120l-44-45c-8-7-8-20 0-27 7-8 20-8 27 0l78 78c8 7 8 20 0 27z" horiz-adv-x="1000" />

<glyph glyph-name="apple" unicode="&#xe82d;" d="M985 222l-131 132c6 76-6 133-39 173-34 39-83 58-152 58-36 0-72-5-104-9-8-1-15-2-23-3 12 47 34 107 82 154 9 10 9 25 0 35s-26 10-36 0c-60-60-86-136-98-191-13 1-27 2-43 5-32 4-68 9-104 9-69 0-118-19-151-58-34-40-46-97-40-173l-131-132c-20-19-20-51 0-71l106-106c19-19 51-19 70 0l23 22c32-90 90-136 172-136 26 0 51 4 73 8 16 3 31 5 41 5 11 0 27-2 43-5 22-4 46-8 72-8 81 0 139 46 171 136l23-22c19-19 51-19 70 0l106 106c20 20 20 52 0 71z m-648 313c59 0 123-16 163-16 40 0 104 16 163 16 66 0 127-20 140-104h-606c14 84 74 104 140 104z m-181-454l-106 106 35 35 18-18c10-9 26-9 35 0 10 10 10 26 0 36l-17 17 33 34c12-61 23-101 34-136 3-11 6-22 9-33l-41-41z m594 38c-29-114-81-138-135-138-41 0-82 13-115 13-32 0-73-13-114-13-54 0-107 24-136 138-5 21-11 40-18 62h535c-6-22-12-42-17-62z m31 112h-562c-7 24-13 52-19 88-4 23-6 43-6 62h81v-25c0-14 11-25 25-25 14 0 25 11 25 25v25h150v-50c0-14 11-25 25-25 14 0 25 11 25 25v50h150v-25c0-14 11-25 25-25s25 11 25 25v25h81c0-19-2-39-6-62-6-34-12-63-19-88z m63-150l-41 41c3 11 6 22 9 34 11 35 23 79 34 135l33-34-17-17c-10-10-10-26 0-36 9-9 25-9 35 0l18 18 35-35-106-106z" horiz-adv-x="1000" />
</font>
</defs>
</svg>
